<?xml version="1.0" standalone="no"?>
<!DOCTYPE svg PUBLIC "-//W3C//DTD SVG 1.1//EN" "http://www.w3.org/Graphics/SVG/1.1/DTD/svg11.dtd" >
<svg xmlns="http://www.w3.org/2000/svg">
<metadata>
<json>
<![CDATA[
{
	"fontFamily": "primeicons",
	"majorVersion": 1,
	"minorVersion": 0,
	"copyright": "PrimeTek Informatics",
	"designer": "",
	"description": "Icon Library for Prime UI Libraries\nFont generated by IcoMoon.",
	"fontURL": "https://github.com/primefaces/primeicons",
	"license": "MIT",
	"licenseURL": "https://opensource.org/licenses/MIT",
	"version": "Version 1.0",
	"fontId": "primeicons",
	"psName": "primeicons",
	"subFamily": "Regular",
	"fullName": "primeicons"
}
]]>
</json>
</metadata>
<defs>
<font id="primeicons" horiz-adv-x="1024">
<font-face units-per-em="1024" ascent="960" descent="-64" />
<missing-glyph horiz-adv-x="1024" />
<glyph unicode="&#x20;" horiz-adv-x="512" d="" />
<glyph unicode="&#xe900;" glyph-name="chevron-left" data-tags="chevron-left" d="M293.547 408.747l358.827-358.827c3.867-3.898 9.225-6.31 15.147-6.31s11.28 2.413 15.145 6.309l60.161 60.161c3.898 3.867 6.31 9.225 6.31 15.147s-2.413 11.28-6.309 15.145l-313.601 313.601 271.36 271.787 30.293 29.867c3.898 3.867 6.31 9.225 6.31 15.147s-2.413 11.28-6.309 15.145l-60.161 60.161c-3.867 3.898-9.225 6.31-15.147 6.31s-11.28-2.413-15.145-6.309l-0.001-0.001-30.293-29.867-316.587-317.013c-11.669-11.531-18.895-27.535-18.895-45.227s7.227-33.696 18.889-45.221l0.006-0.006z" />
<glyph unicode="&#xe901;" glyph-name="chevron-right" data-tags="chevron-right" d="M730.453 487.253l-358.827 358.827c-3.867 3.898-9.225 6.31-15.147 6.31s-11.28-2.413-15.145-6.309l-60.161-60.161c-3.898-3.867-6.31-9.225-6.31-15.147s2.413-11.28 6.309-15.145l313.601-313.601-271.36-271.787-30.293-29.867c-3.898-3.867-6.31-9.225-6.31-15.147s2.413-11.28 6.309-15.145l60.161-60.161c3.867-3.898 9.225-6.31 15.147-6.31s11.28 2.413 15.145 6.309l0.001 0.001 30.293 29.867 316.587 317.013c11.669 11.531 18.895 27.535 18.895 45.227s-7.227 33.696-18.889 45.221l-0.006 0.006z" />
<glyph unicode="&#xe902;" glyph-name="chevron-down" data-tags="chevron-down" d="M551.253 229.547l358.827 358.827c3.898 3.867 6.31 9.225 6.31 15.147s-2.413 11.28-6.309 15.145l-60.161 60.161c-3.867 3.898-9.225 6.31-15.147 6.31s-11.28-2.413-15.145-6.309l-313.601-313.601-271.787 271.36-29.867 30.293c-3.867 3.898-9.225 6.31-15.147 6.31s-11.28-2.413-15.145-6.309l-60.161-60.161c-3.898-3.867-6.31-9.225-6.31-15.147s2.413-11.28 6.309-15.145l0.001-0.001 29.867-30.293 317.013-316.587c11.531-11.669 27.535-18.895 45.227-18.895s33.696 7.227 45.221 18.889l0.006 0.006z" />
<glyph unicode="&#xe903;" glyph-name="chevron-up" data-tags="chevron-up" d="M472.747 666.453l-358.827-358.827c-3.898-3.867-6.31-9.225-6.31-15.147s2.413-11.28 6.309-15.145l60.161-60.161c3.867-3.898 9.225-6.31 15.147-6.31s11.28 2.413 15.145 6.309l313.601 313.601 271.787-271.36 29.867-30.293c3.867-3.898 9.225-6.31 15.147-6.31s11.28 2.413 15.145 6.309l60.161 60.161c3.898 3.867 6.31 9.225 6.31 15.147s-2.413 11.28-6.309 15.145l-0.001 0.001-29.867 30.293-317.013 316.587c-11.531 11.669-27.535 18.895-45.227 18.895s-33.696-7.227-45.221-18.889l-0.006-0.006z" />
<glyph unicode="&#xe904;" glyph-name="caret-left" data-tags="caret-left" d="M352.427 423.68l277.333-278.613c5.573-4.83 12.896-7.774 20.907-7.774 17.673 0 32 14.327 32 32 0 0.033 0 0.066 0 0.099v-0.005 557.227c-0.262 17.708-14.678 31.962-32.423 31.962-7.99 0-15.305-2.89-20.957-7.681l0.047 0.039-276.907-279.040c-6.86-5.829-11.184-14.463-11.184-24.107s4.324-18.278 11.138-24.069l0.045-0.037z" />
<glyph unicode="&#xe905;" glyph-name="caret-right" data-tags="caret-right" d="M671.573 472.32l-277.333 278.613c-5.573 4.83-12.896 7.774-20.907 7.774-17.673 0-32-14.327-32-32 0-0.033 0-0.066 0-0.099v0.005-557.227c0.262-17.708 14.678-31.962 32.423-31.962 7.99 0 15.305 2.89 20.957 7.681l-0.047-0.039 276.907 279.040c6.86 5.829 11.184 14.463 11.184 24.107s-4.324 18.278-11.138 24.069l-0.045 0.037z" />
<glyph unicode="&#xe906;" glyph-name="caret-down" data-tags="caret-down" d="M536.32 288.427l278.613 277.333c4.83 5.573 7.774 12.896 7.774 20.907 0 17.673-14.327 32-32 32-0.033 0-0.066 0-0.099 0h-557.222c-17.708-0.262-31.962-14.678-31.962-32.423 0-7.99 2.89-15.305 7.681-20.957l-0.039 0.047 279.040-276.907c5.829-6.86 14.463-11.184 24.107-11.184s18.278 4.324 24.069 11.138l0.037 0.045z" />
<glyph unicode="&#xe907;" glyph-name="caret-up" data-tags="caret-up" d="M487.68 607.573l-278.613-277.333c-4.83-5.573-7.774-12.896-7.774-20.907 0-17.673 14.327-32 32-32 0.033 0 0.066 0 0.099 0h557.222c17.708 0.262 31.962 14.678 31.962 32.423 0 7.99-2.89 15.305-7.681 20.957l0.039-0.047-279.040 276.907c-5.829 6.86-14.463 11.184-24.107 11.184s-18.278-4.324-24.069-11.138l-0.037-0.045z" />
<glyph unicode="&#xe908;" glyph-name="search" data-tags="search" d="M469.333 834.56c-188.513 0-341.333-152.82-341.333-341.333s152.82-341.333 341.333-341.333c188.513 0 341.333 152.82 341.333 341.333v0c0 188.513-152.82 341.333-341.333 341.333v0zM469.333 279.893c-117.821 0-213.333 95.513-213.333 213.333s95.513 213.333 213.333 213.333c117.821 0 213.333-95.513 213.333-213.333v0c0-117.821-95.513-213.333-213.333-213.333v0zM658.342 210.212l90.51 90.51 196.104-196.104c16.662-16.662 16.662-43.677 0-60.34v0l-30.17-30.17c-16.662-16.662-43.677-16.662-60.34 0v0l-196.104 196.104z" />
<glyph unicode="&#xe909;" glyph-name="check" data-tags="check" d="M474.453 178.347l392.107 392.533c3.771 3.845 6.098 9.117 6.098 14.933s-2.327 11.088-6.102 14.937l-60.584 60.584c-3.845 3.771-9.117 6.098-14.933 6.098s-11.088-2.327-14.937-6.102l-346.877-346.877-181.333 180.907c-3.845 3.771-9.117 6.098-14.933 6.098s-11.088-2.327-14.937-6.102l-60.584-60.584c-3.771-3.845-6.098-9.117-6.098-14.933s2.327-11.088 6.102-14.937l226.557-226.557c11.67-11.364 27.63-18.372 45.227-18.372s33.557 7.008 45.241 18.386l-0.014-0.014z" />
<glyph unicode="&#xe90a;" glyph-name="check-circle" data-tags="check-circle" d="M512 789.333c-188.513 0-341.333-152.82-341.333-341.333s152.82-341.333 341.333-341.333c188.513 0 341.333 152.82 341.333 341.333v0c0 188.513-152.82 341.333-341.333 341.333v0zM750.507 553.813l-263.68-263.68c-7.753-7.924-18.556-12.837-30.507-12.837s-22.753 4.913-30.499 12.83l-131.848 131.848-20.48 20.053c-2.615 2.623-4.231 6.243-4.231 10.24s1.617 7.617 4.232 10.24v0l42.667 40.533c2.555 2.59 6.103 4.195 10.027 4.195s7.472-1.605 10.025-4.193l20.482-20.482 101.12-101.547 213.333 213.333 20.48 20.053c2.555 2.59 6.103 4.195 10.027 4.195s7.472-1.605 10.025-4.193l42.669-42.669c1.075-1.942 1.707-4.257 1.707-6.72 0-4.553-2.161-8.602-5.514-11.175l-0.033-0.025z" />
<glyph unicode="&#xe90b;" glyph-name="times" data-tags="times" d="M632.747 448l135.253 135.68c7.795 7.733 12.621 18.45 12.621 30.293s-4.826 22.56-12.618 30.291l-59.736 59.736c-7.733 7.795-18.45 12.621-30.293 12.621s-22.56-4.826-30.291-12.618l-0.003-0.003-135.68-135.253-135.68 135.253c-7.733 7.795-18.45 12.621-30.293 12.621s-22.56-4.826-30.291-12.618l-59.736-59.736c-7.795-7.733-12.621-18.45-12.621-30.293s4.826-22.56 12.618-30.291l0.003-0.003 135.253-135.68-135.253-135.68c-7.795-7.733-12.621-18.45-12.621-30.293s4.826-22.56 12.618-30.291l59.736-59.736c7.733-7.795 18.45-12.621 30.293-12.621s22.56 4.826 30.291 12.618l0.003 0.003 135.68 135.253 135.68-135.253c7.733-7.795 18.45-12.621 30.293-12.621s22.56 4.826 30.291 12.618l59.736 59.736c7.795 7.733 12.621 18.45 12.621 30.293s-4.826 22.56-12.618 30.291l-0.003 0.003z" />
<glyph unicode="&#xe90c;" glyph-name="times-circle" data-tags="times-circle" d="M512 789.333c-188.513 0-341.333-152.82-341.333-341.333s152.82-341.333 341.333-341.333c188.513 0 341.333 152.82 341.333 341.333v0c0 188.513-152.82 341.333-341.333 341.333v0zM674.56 362.667c4.981-4.883 8.068-11.681 8.068-19.2s-3.087-14.317-8.064-19.196l-37.977-37.977c-4.883-4.981-11.681-8.068-19.2-8.068s-14.317 3.087-19.196 8.064l-85.337 85.337-85.333-85.333c-4.883-4.981-11.681-8.068-19.2-8.068s-14.317 3.087-19.196 8.064l-37.977 37.977c-4.981 4.883-8.068 11.681-8.068 19.2s3.087 14.317 8.064 19.196l85.337 85.337-85.333 85.333c-4.981 4.883-8.068 11.681-8.068 19.2s3.087 14.317 8.064 19.196l37.977 37.977c4.883 4.981 11.681 8.068 19.2 8.068s14.317-3.087 19.196-8.064l85.337-85.337 85.333 85.333c4.883 4.981 11.681 8.068 19.2 8.068s14.317-3.087 19.196-8.064l37.977-37.977c4.981-4.883 8.068-11.681 8.068-19.2s-3.087-14.317-8.064-19.196l-85.337-85.337z" />
<glyph unicode="&#xe90d;" glyph-name="plus" data-tags="plus" d="M597.333 533.333v192c0 23.564-19.103 42.667-42.667 42.667v0h-85.333c-23.564 0-42.667-19.103-42.667-42.667v0-192h-192c-23.564 0-42.667-19.103-42.667-42.667v0-85.333c0-23.564 19.103-42.667 42.667-42.667v0h192v-192c0-23.564 19.103-42.667 42.667-42.667v0h85.333c23.564 0 42.667 19.103 42.667 42.667v0 192h192c23.564 0 42.667 19.103 42.667 42.667v0 85.333c0 23.564-19.103 42.667-42.667 42.667v0z" />
<glyph unicode="&#xe90e;" glyph-name="plus-circle" data-tags="plus-circle" d="M270.507 689.493c-61.689-61.756-99.84-147.035-99.84-241.225 0-188.513 152.82-341.333 341.333-341.333s341.333 152.82 341.333 341.333c0 94.19-38.151 179.469-99.843 241.228l0.003-0.003c-61.782 61.849-147.17 100.109-241.493 100.109s-179.711-38.259-241.49-100.105l-0.003-0.003zM687.787 502.187c15.081 0 27.307-12.226 27.307-27.307v0-53.76c0-15.081-12.226-27.307-27.307-27.307v0h-121.6v-121.6c0-15.081-12.226-27.307-27.307-27.307v0h-53.76c-15.081 0-27.307 12.226-27.307 27.307v0 121.6h-121.6c-15.081 0-27.307 12.226-27.307 27.307v0 53.76c0 15.081 12.226 27.307 27.307 27.307h121.6v121.6c0 15.081 12.226 27.307 27.307 27.307v0h53.76c15.081 0 27.307-12.226 27.307-27.307v0-121.6z" />
<glyph unicode="&#xe90f;" glyph-name="minus" data-tags="minus" d="M234.667 532.48h554.667c23.564 0 42.667-19.103 42.667-42.667v-84.053c0-23.564-19.103-42.667-42.667-42.667h-554.667c-23.564 0-42.667 19.103-42.667 42.667v84.053c0 23.564 19.103 42.667 42.667 42.667z" />
<glyph unicode="&#xe910;" glyph-name="minus-circle" data-tags="minus-circle" d="M512 789.333c-188.513 0-341.333-152.82-341.333-341.333s152.82-341.333 341.333-341.333c188.513 0 341.333 152.82 341.333 341.333v0c0 188.513-152.82 341.333-341.333 341.333v0zM715.093 420.693c0-14.845-12.035-26.88-26.88-26.88v0h-352.427c-14.845 0-26.88 12.035-26.88 26.88v54.613c0 14.845 12.035 26.88 26.88 26.88v0h352.427c14.845 0 26.88-12.035 26.88-26.88v0z" />
<glyph unicode="&#xe911;" glyph-name="circle-on" data-tags="radio-on" d="M853.333 448c0-188.513-152.82-341.333-341.333-341.333s-341.333 152.82-341.333 341.333c0 188.513 152.82 341.333 341.333 341.333s341.333-152.82 341.333-341.333z" />
<glyph unicode="&#xe912;" glyph-name="circle-off" data-tags="radio-off" d="M512 789.333c-188.513 0-341.333-152.82-341.333-341.333s152.82-341.333 341.333-341.333c188.513 0 341.333 152.82 341.333 341.333v0c0 188.513-152.82 341.333-341.333 341.333v0zM512 192c-141.385 0-256 114.615-256 256s114.615 256 256 256c141.385 0 256-114.615 256-256v0c0-141.385-114.615-256-256-256v0z" />
<glyph unicode="&#xe913;" glyph-name="sort-down" data-tags="sort-down" d="M536.32 51.2l278.613 277.333c4.753 5.605 7.642 12.92 7.642 20.91 0 17.746-14.254 32.162-31.938 32.423h-557.252c-0.14 0.002-0.306 0.003-0.472 0.003-17.673 0-32-14.327-32-32 0-8.212 3.093-15.701 8.178-21.367l-0.026 0.030 279.040-277.333c5.897-6.73 14.508-10.956 24.107-10.956s18.21 4.226 24.075 10.919l0.032 0.037z" />
<glyph unicode="&#xe914;" glyph-name="sort-up" data-tags="sort-up" d="M487.68 844.8l-278.613-277.333c-4.753-5.605-7.642-12.92-7.642-20.91 0-17.746 14.254-32.162 31.938-32.423h557.252c0.14-0.002 0.306-0.003 0.472-0.003 17.673 0 32 14.327 32 32 0 8.212-3.093 15.701-8.178 21.367l0.026-0.030-279.040 277.333c-5.897 6.73-14.508 10.956-24.107 10.956s-18.21-4.226-24.075-10.919l-0.032-0.037z" />
<glyph unicode="&#xe915;" glyph-name="sort" data-tags="sort" d="M233.387 514.133h557.227c0.14-0.002 0.306-0.003 0.472-0.003 17.673 0 32 14.327 32 32 0 8.212-3.093 15.701-8.178 21.367l0.026-0.030-279.040 277.333c-5.897 6.73-14.508 10.956-24.107 10.956s-18.21-4.226-24.075-10.919l-0.032-0.037-278.613-277.333c-4.753-5.605-7.642-12.92-7.642-20.91 0-17.746 14.254-32.162 31.938-32.423h0.025zM790.613 381.867h-557.227c-0.14 0.002-0.306 0.003-0.472 0.003-17.673 0-32-14.327-32-32 0-8.212 3.093-15.701 8.178-21.367l-0.026 0.030 279.040-277.333c5.897-6.73 14.508-10.956 24.107-10.956s18.21 4.226 24.075 10.919l0.032 0.037 278.613 277.333c4.753 5.605 7.642 12.92 7.642 20.91 0 17.746-14.254 32.162-31.938 32.423h-0.025z" />
<glyph unicode="&#xe916;" glyph-name="step-backward" data-tags="step-backward" d="M672.427 145.067c5.573-4.83 12.896-7.774 20.907-7.774 17.673 0 32 14.327 32 32 0 0.033 0 0.066 0 0.099v-0.005 557.227c-0.262 17.708-14.678 31.962-32.423 31.962-7.99 0-15.305-2.89-20.957-7.681l0.047 0.039-276.907-279.040c-6.773-5.798-11.051-14.342-11.093-23.886v-0.007c0.031-9.685 4.304-18.367 11.056-24.288l0.037-0.032zM320 137.387h42.667c11.782 0 21.333 9.551 21.333 21.333v0 578.56c0 11.782-9.551 21.333-21.333 21.333v0h-42.667c-11.782 0-21.333-9.551-21.333-21.333v0-578.56c0-11.782 9.551-21.333 21.333-21.333v0z" />
<glyph unicode="&#xe917;" glyph-name="step-forward" data-tags="step-forward" d="M351.573 750.933c-5.573 4.83-12.896 7.774-20.907 7.774-17.673 0-32-14.327-32-32 0-0.033 0-0.066 0-0.099v0.005-557.227c0.262-17.708 14.678-31.962 32.423-31.962 7.99 0 15.305 2.89 20.957 7.681l-0.047-0.039 276.907 279.040c6.773 5.798 11.051 14.342 11.093 23.886v0.007c-0.031 9.685-4.304 18.367-11.056 24.288l-0.037 0.032zM704 758.613h-42.667c-11.782 0-21.333-9.551-21.333-21.333v0-578.56c0-11.782 9.551-21.333 21.333-21.333v0h42.667c11.782 0 21.333 9.551 21.333 21.333v0 578.56c0 11.782-9.551 21.333-21.333 21.333v0z" />
<glyph unicode="&#xe918;" glyph-name="th-large" data-tags="th-large" d="M170.667 789.333h256c23.564 0 42.667-19.103 42.667-42.667v-213.333c0-23.564-19.103-42.667-42.667-42.667h-256c-23.564 0-42.667 19.103-42.667 42.667v213.333c0 23.564 19.103 42.667 42.667 42.667zM170.667 409.6h256c23.564 0 42.667-19.103 42.667-42.667v-213.333c0-23.564-19.103-42.667-42.667-42.667h-256c-23.564 0-42.667 19.103-42.667 42.667v213.333c0 23.564 19.103 42.667 42.667 42.667zM597.333 789.333h256c23.564 0 42.667-19.103 42.667-42.667v-213.333c0-23.564-19.103-42.667-42.667-42.667h-256c-23.564 0-42.667 19.103-42.667 42.667v213.333c0 23.564 19.103 42.667 42.667 42.667zM597.333 405.333h256c23.564 0 42.667-19.103 42.667-42.667v-213.333c0-23.564-19.103-42.667-42.667-42.667h-256c-23.564 0-42.667 19.103-42.667 42.667v213.333c0 23.564 19.103 42.667 42.667 42.667z" />
<glyph unicode="&#xe919;" glyph-name="arrow-down" data-tags="arrow-down" d="M444.16 839.68v-588.8l-239.787 239.787c-3.912 3.797-9.256 6.137-15.147 6.137s-11.234-2.341-15.152-6.142l-60.155-60.155c-3.984-3.745-6.465-9.050-6.465-14.933s2.481-11.188 6.454-14.923l0.011-0.010 29.867-30.293 317.013-317.013c11.579-11.565 27.568-18.717 45.227-18.717s33.648 7.152 45.227 18.718l328.959 328.533 29.867 30.293c3.898 3.867 6.31 9.225 6.31 15.147s-2.413 11.28-6.309 15.145l-60.161 60.161c-3.867 3.898-9.225 6.31-15.147 6.31s-11.28-2.413-15.145-6.309l-0.001-0.001-29.867-30.293-217.6-217.173v584.533c0 11.782-9.551 21.333-21.333 21.333v0h-85.333c-11.782 0-21.333-9.551-21.333-21.333v0z" />
<glyph unicode="&#xe91a;" glyph-name="arrow-left" data-tags="arrow-left" d="M903.68 515.84h-588.8l209.92 209.92 30.293 29.867c3.797 3.912 6.137 9.256 6.137 15.147s-2.341 11.234-6.142 15.152l0.005-0.005-60.587 60.16c-3.745 3.984-9.050 6.465-14.933 6.465s-11.188-2.481-14.923-6.454l-0.010-0.011-30.293-29.867-317.013-317.013c-11.565-11.579-18.717-27.568-18.717-45.227s7.152-33.648 18.718-45.227l328.533-328.959 30.293-29.867c3.867-3.898 9.225-6.31 15.147-6.31s11.28 2.413 15.145 6.309l60.161 60.161c3.898 3.867 6.31 9.225 6.31 15.147s-2.413 11.28-6.309 15.145l-0.001 0.001-30.293 29.867-217.173 217.6h584.533c11.782 0 21.333 9.551 21.333 21.333v0 85.333c0 11.782-9.551 21.333-21.333 21.333v0z" />
<glyph unicode="&#xe91b;" glyph-name="arrow-right" data-tags="arrow-right" d="M120.32 380.16h588.8l-209.92-209.92-30.293-29.867c-3.797-3.912-6.137-9.256-6.137-15.147s2.341-11.234 6.142-15.152l-0.005 0.005 60.587-60.16c3.745-3.984 9.050-6.465 14.933-6.465s11.188 2.481 14.923 6.454l0.010 0.011 30.293 29.867 317.013 317.013c11.565 11.579 18.717 27.568 18.717 45.227s-7.152 33.648-18.718 45.227l-328.533 328.959-30.293 29.867c-3.867 3.898-9.225 6.31-15.147 6.31s-11.28-2.413-15.145-6.309l-0.001-0.001-60.587-60.16c-3.898-3.867-6.31-9.225-6.31-15.147s2.413-11.28 6.309-15.145l0.001-0.001 30.293-29.867 217.173-217.6h-584.107c-11.782 0-21.333-9.551-21.333-21.333v0-85.333c0-11.782 9.551-21.333 21.333-21.333v0z" />
<glyph unicode="&#xe91c;" glyph-name="arrow-up" data-tags="arrow-up" d="M579.84 56.32v588.8l209.92-209.92 29.867-30.293c3.912-3.797 9.256-6.137 15.147-6.137s11.234 2.341 15.152 6.142l-0.005-0.005 60.16 60.587c3.984 3.745 6.465 9.050 6.465 14.933s-2.481 11.188-6.454 14.923l-0.011 0.010-29.867 30.293-317.013 317.013c-11.579 11.565-27.568 18.717-45.227 18.717s-33.648-7.152-45.227-18.718l-328.959-328.533-29.867-30.293c-3.898-3.867-6.31-9.225-6.31-15.147s2.413-11.28 6.309-15.145l60.161-60.161c3.867-3.898 9.225-6.31 15.147-6.31s11.28 2.413 15.145 6.309l0.001 0.001 29.867 30.293 217.6 217.173v-584.533c0-11.782 9.551-21.333 21.333-21.333v0h85.333c11.782 0 21.333 9.551 21.333 21.333v0z" />
<glyph unicode="&#xe91d;" glyph-name="bars" data-tags="bars" d="M213.333 512h597.333c23.564 0 42.667-19.103 42.667-42.667v-42.667c0-23.564-19.103-42.667-42.667-42.667h-597.333c-23.564 0-42.667 19.103-42.667 42.667v42.667c0 23.564 19.103 42.667 42.667 42.667zM213.333 746.667h597.333c23.564 0 42.667-19.103 42.667-42.667v-42.667c0-23.564-19.103-42.667-42.667-42.667h-597.333c-23.564 0-42.667 19.103-42.667 42.667v42.667c0 23.564 19.103 42.667 42.667 42.667zM213.333 277.333h597.333c23.564 0 42.667-19.103 42.667-42.667v-42.667c0-23.564-19.103-42.667-42.667-42.667h-597.333c-23.564 0-42.667 19.103-42.667 42.667v42.667c0 23.564 19.103 42.667 42.667 42.667z" />
<glyph unicode="&#xe91e;" glyph-name="arrow-circle-down" data-tags="arrow-circle-down" d="M170.667 448c0-188.513 152.82-341.333 341.333-341.333s341.333 152.82 341.333 341.333c0 188.513-152.82 341.333-341.333 341.333v0c-188.513 0-341.333-152.82-341.333-341.333v0zM538.027 661.333c8.012 0 14.507-6.495 14.507-14.507v0-264.107l123.307 123.733c2.555 2.59 6.103 4.195 10.027 4.195s7.472-1.605 10.025-4.193l0.002-0.002 42.667-40.533c2.615-2.623 4.231-6.243 4.231-10.24s-1.617-7.617-4.232-10.24v0l-200.107-197.973c-7.753-7.924-18.556-12.837-30.507-12.837s-22.753 4.913-30.499 12.83l-190.728 190.728c-2.615 2.623-4.231 6.243-4.231 10.24s1.617 7.617 4.232 10.24v0l42.667 40.533c2.555 2.59 6.103 4.195 10.027 4.195s7.472-1.605 10.025-4.193l20.482-20.482 97.707-98.133v266.24c0 0.017 0 0.037 0 0.057 0 7.561 5.785 13.771 13.17 14.446l0.057 0.004z" />
<glyph unicode="&#xe91f;" glyph-name="arrow-circle-left" data-tags="arrow-circle-left" d="M512 789.333c-188.513 0-341.333-152.82-341.333-341.333s152.82-341.333 341.333-341.333c188.513 0 341.333 152.82 341.333 341.333v0c0 188.513-152.82 341.333-341.333 341.333v0zM725.333 421.973c0-8.012-6.495-14.507-14.507-14.507h-264.107l123.733-123.307c2.59-2.555 4.195-6.103 4.195-10.027s-1.605-7.472-4.193-10.025l-0.002-0.002-40.533-42.667c-2.623-2.615-6.243-4.231-10.24-4.231s-7.617 1.617-10.24 4.232v0l-197.973 200.107c-7.924 7.753-12.837 18.556-12.837 30.507s4.913 22.753 12.83 30.499l190.728 190.728c2.623 2.615 6.243 4.231 10.24 4.231s7.617-1.617 10.24-4.232v0l40.533-42.667c2.59-2.555 4.195-6.103 4.195-10.027s-1.605-7.472-4.193-10.025l-20.482-20.482-98.133-97.707h267.093c8.012 0 14.507-6.495 14.507-14.507v0z" />
<glyph unicode="&#xe920;" glyph-name="arrow-circle-right" data-tags="arrow-circle-right" d="M512 106.667c188.513 0 341.333 152.82 341.333 341.333s-152.82 341.333-341.333 341.333c-188.513 0-341.333-152.82-341.333-341.333v0c0-188.513 152.82-341.333 341.333-341.333v0zM298.667 474.027c0 8.012 6.495 14.507 14.507 14.507v0h264.107l-123.733 123.307c-2.59 2.555-4.195 6.103-4.195 10.027s1.605 7.472 4.193 10.025l0.002 0.002 40.533 42.667c2.623 2.615 6.243 4.231 10.24 4.231s7.617-1.617 10.24-4.232v0l197.973-197.973c7.924-7.753 12.837-18.556 12.837-30.507s-4.913-22.753-12.83-30.499l-190.728-190.728c-2.623-2.615-6.243-4.231-10.24-4.231s-7.617 1.617-10.24 4.232v0l-40.533 42.667c-2.59 2.555-4.195 6.103-4.195 10.027s1.605 7.472 4.193 10.025l20.482 20.482 98.133 97.707h-266.24c-0.121-0.004-0.263-0.006-0.406-0.006-6.802 0-12.511 4.682-14.080 10.999l-0.021 0.1z" />
<glyph unicode="&#xe921;" glyph-name="arrow-circle-up" data-tags="arrow-circle-up" d="M853.333 448c0 188.513-152.82 341.333-341.333 341.333s-341.333-152.82-341.333-341.333c0-188.513 152.82-341.333 341.333-341.333v0c188.513 0 341.333 152.82 341.333 341.333v0zM485.973 234.667c-8.012 0-14.507 6.495-14.507 14.507v0 264.107l-123.307-123.733c-2.555-2.59-6.103-4.195-10.027-4.195s-7.472 1.605-10.025 4.193l-0.002 0.002-42.667 40.533c-2.615 2.623-4.231 6.243-4.231 10.24s1.617 7.617 4.232 10.24v0l200.107 197.973c7.753 7.924 18.556 12.837 30.507 12.837s22.753-4.913 30.499-12.83l190.728-190.728c2.615-2.623 4.231-6.243 4.231-10.24s-1.617-7.617-4.232-10.24v0l-42.667-40.533c-2.555-2.59-6.103-4.195-10.027-4.195s-7.472 1.605-10.025 4.193l-20.482 20.482-97.707 98.133v-267.093c0-8.012-6.495-14.507-14.507-14.507v0z" />
<glyph unicode="&#xe922;" glyph-name="exclamation-triangle" data-tags="exclamation-triangle" d="M888.747 192l-330.667 566.613c-9.57 15.727-26.617 26.069-46.080 26.069s-36.51-10.343-45.946-25.832l-0.134-0.237-330.667-566.613c-4.885-7.901-7.779-17.48-7.779-27.736 0-29.455 23.878-53.333 53.333-53.333 0.185 0 0.37 0.001 0.554 0.003h661.305c0.156-0.002 0.341-0.003 0.526-0.003 29.455 0 53.333 23.878 53.333 53.333 0 10.256-2.895 19.835-7.911 27.966l0.132-0.23zM473.173 590.080h77.653c12.018 0 21.76-9.742 21.76-21.76v0l-8.533-175.787c0-0.001 0-0.003 0-0.004 0-11.782-9.551-21.333-21.333-21.333-0.15 0-0.3 0.002-0.449 0.005h-60.565c-0.127-0.003-0.277-0.004-0.427-0.004-11.782 0-21.333 9.551-21.333 21.333 0 0.002 0 0.003 0 0.005v0l-8.533 175.787c0 12.018 9.742 21.76 21.76 21.76v0zM512 212.053c-35.341 0.007-63.987 28.658-63.987 64 0 35.346 28.654 64 64 64 34.896 0 63.269-27.929 63.986-62.653l0.001-0.067c0.008-0.381 0.013-0.83 0.013-1.28 0-35.346-28.654-64-64-64-0.005 0-0.009 0-0.014 0h0.001z" />
<glyph unicode="&#xe923;" glyph-name="info" data-tags="info" d="M448 640h128c11.782 0 21.333 9.551 21.333 21.333v0 85.333c0 11.782-9.551 21.333-21.333 21.333v0h-132.267c-9.426 0-17.067-7.641-17.067-17.067v0-89.6c0-11.782 9.551-21.333 21.333-21.333v0zM640 234.667h-42.667v298.667c0 11.782-9.551 21.333-21.333 21.333v0h-192c-11.782 0-21.333-9.551-21.333-21.333v0-64c0-11.782 9.551-21.333 21.333-21.333v0h42.667v-213.333h-42.667c-11.782 0-21.333-9.551-21.333-21.333v0-64c0-11.782 9.551-21.333 21.333-21.333v0h256c11.782 0 21.333 9.551 21.333 21.333v0 64c0 11.782-9.551 21.333-21.333 21.333v0z" />
<glyph unicode="&#xe924;" glyph-name="info-circle" data-tags="info-circle" d="M512 789.333c-188.513 0-341.333-152.82-341.333-341.333s152.82-341.333 341.333-341.333c188.513 0 341.333 152.82 341.333 341.333v0c0 188.513-152.82 341.333-341.333 341.333v0zM455.253 650.24c0 6.127 4.967 11.093 11.093 11.093h88.32c7.776 0 14.080-6.304 14.080-14.080v0-57.173c0-7.776-6.304-14.080-14.080-14.080v0h-85.333c-7.776 0-14.080 6.304-14.080 14.080v0zM611.413 248.747c0-7.776-6.304-14.080-14.080-14.080v0h-170.667c-7.776 0-14.080 6.304-14.080 14.080v0 42.667c0 0.002 0 0.004 0 0.006 0 7.862 6.254 14.263 14.058 14.5l0.022 0.001h28.587v142.080h-28.587c-7.776 0-14.080 6.304-14.080 14.080v42.667c0 0.002 0 0.004 0 0.006 0 7.862 6.254 14.263 14.058 14.5l0.022 0.001h128c7.826-0.238 14.080-6.639 14.080-14.5 0-0.002 0-0.004 0-0.007v0-198.827h28.587c7.826-0.238 14.080-6.639 14.080-14.5 0-0.002 0-0.004 0-0.007v0z" />
<glyph unicode="&#xe925;" glyph-name="home" data-tags="home" d="M923.307 506.88l-397.653 338.347c-3.699 3-8.464 4.816-13.653 4.816s-9.954-1.816-13.694-4.848l0.041 0.032-397.653-338.347c-9.836-7.884-16.080-19.898-16.080-33.371 0-10.771 3.991-20.61 10.575-28.118l-0.042 0.049c7.882-9.459 19.666-15.435 32.846-15.435 10.422 0 19.971 3.736 27.38 9.943l-0.067-0.054 341.333 294.827c3.64 3.153 8.422 5.074 13.653 5.074s10.013-1.921 13.68-5.096l-0.026 0.022 341.333-294.827c7.343-6.152 16.892-9.888 27.314-9.888 13.18 0 24.964 5.976 32.791 15.366l0.056 0.069c7.441 7.671 12.027 18.146 12.027 29.693 0 12.588-5.451 23.903-14.122 31.713l-0.038 0.034zM526.080 673.28c-3.701 3.381-8.649 5.452-14.080 5.452s-10.379-2.071-14.096-5.467l0.016 0.015-305.493-267.947c-13.135-11.509-21.468-28.22-21.759-46.883l-0.001-0.051v-248.32c0-35.346 28.654-64 64-64v0h181.333c11.782 0 21.333 9.551 21.333 21.333v0 148.907c0 23.564 19.103 42.667 42.667 42.667v0h64c23.564 0 42.667-19.103 42.667-42.667v0-148.907c0-11.782 9.551-21.333 21.333-21.333v0h181.333c35.346 0 64 28.654 64 64v0 247.893c-0.444 18.815-8.729 35.61-21.702 47.308l-0.058 0.052z" />
<glyph unicode="&#xe926;" glyph-name="spinner" data-tags="spinner" d="M512 78.080c-204.301 0-369.92 165.619-369.92 369.92s165.619 369.92 369.92 369.92v0c23.564 0 42.667-19.103 42.667-42.667s-19.103-42.667-42.667-42.667v0c-0.102 0-0.222 0-0.342 0-157.409 0-285.013-127.605-285.013-285.013s127.605-285.013 285.013-285.013c157.409 0 285.013 127.605 285.013 285.013 0 54.736-15.43 105.869-42.177 149.285l0.706-1.232c-4.111 6.442-6.552 14.296-6.552 22.72 0 14.892 7.629 28.002 19.193 35.634l0.16 0.099c6.264 3.817 13.841 6.077 21.946 6.077 15.403 0 28.9-8.162 36.401-20.397l0.106-0.186c33.784-54.703 53.803-121.015 53.803-192.002 0-203.631-164.723-368.788-368.189-369.491h-0.067z" />
<glyph unicode="&#xe927;" glyph-name="calendar" data-tags="calendar" d="M810.667 744.107h-597.333c-23.564 0-42.667-19.103-42.667-42.667v0-597.333c0-23.564 19.103-42.667 42.667-42.667v0h597.333c23.564 0 42.667 19.103 42.667 42.667v0 597.333c0 23.564-19.103 42.667-42.667 42.667v0zM789.333 168.107c0-23.564-19.103-42.667-42.667-42.667v0h-469.333c-23.564 0-42.667 19.103-42.667 42.667v0 357.973c0 23.564 19.103 42.667 42.667 42.667v0h469.333c23.564 0 42.667-19.103 42.667-42.667v0zM296.96 523.52h62.72c11.782 0 21.333-9.551 21.333-21.333v-62.72c0-11.782-9.551-21.333-21.333-21.333h-62.72c-11.782 0-21.333 9.551-21.333 21.333v62.72c0 11.782 9.551 21.333 21.333 21.333zM419.413 523.52h62.72c11.782 0 21.333-9.551 21.333-21.333v-62.72c0-11.782-9.551-21.333-21.333-21.333h-62.72c-11.782 0-21.333 9.551-21.333 21.333v62.72c0 11.782 9.551 21.333 21.333 21.333zM541.867 523.52h62.72c11.782 0 21.333-9.551 21.333-21.333v-62.72c0-11.782-9.551-21.333-21.333-21.333h-62.72c-11.782 0-21.333 9.551-21.333 21.333v62.72c0 11.782 9.551 21.333 21.333 21.333zM664.32 523.52h62.72c11.782 0 21.333-9.551 21.333-21.333v-62.72c0-11.782-9.551-21.333-21.333-21.333h-62.72c-11.782 0-21.333 9.551-21.333 21.333v62.72c0 11.782 9.551 21.333 21.333 21.333zM296.96 395.52h62.72c11.782 0 21.333-9.551 21.333-21.333v-62.72c0-11.782-9.551-21.333-21.333-21.333h-62.72c-11.782 0-21.333 9.551-21.333 21.333v62.72c0 11.782 9.551 21.333 21.333 21.333zM419.413 395.52h62.72c11.782 0 21.333-9.551 21.333-21.333v-62.72c0-11.782-9.551-21.333-21.333-21.333h-62.72c-11.782 0-21.333 9.551-21.333 21.333v62.72c0 11.782 9.551 21.333 21.333 21.333zM541.867 395.52h62.72c11.782 0 21.333-9.551 21.333-21.333v-62.72c0-11.782-9.551-21.333-21.333-21.333h-62.72c-11.782 0-21.333 9.551-21.333 21.333v62.72c0 11.782 9.551 21.333 21.333 21.333zM664.32 395.52h62.72c11.782 0 21.333-9.551 21.333-21.333v-62.72c0-11.782-9.551-21.333-21.333-21.333h-62.72c-11.782 0-21.333 9.551-21.333 21.333v62.72c0 11.782 9.551 21.333 21.333 21.333zM296.96 273.067h62.72c11.782 0 21.333-9.551 21.333-21.333v-62.72c0-11.782-9.551-21.333-21.333-21.333h-62.72c-11.782 0-21.333 9.551-21.333 21.333v62.72c0 11.782 9.551 21.333 21.333 21.333zM419.413 273.067h62.72c11.782 0 21.333-9.551 21.333-21.333v-62.72c0-11.782-9.551-21.333-21.333-21.333h-62.72c-11.782 0-21.333 9.551-21.333 21.333v62.72c0 11.782 9.551 21.333 21.333 21.333zM541.867 273.067h62.72c11.782 0 21.333-9.551 21.333-21.333v-62.72c0-11.782-9.551-21.333-21.333-21.333h-62.72c-11.782 0-21.333 9.551-21.333 21.333v62.72c0 11.782 9.551 21.333 21.333 21.333zM664.32 273.067h62.72c11.782 0 21.333-9.551 21.333-21.333v-62.72c0-11.782-9.551-21.333-21.333-21.333h-62.72c-11.782 0-21.333 9.551-21.333 21.333v62.72c0 11.782 9.551 21.333 21.333 21.333zM320 833.707h18.347c23.564 0 42.667-19.103 42.667-42.667v-96c0-23.564-19.103-42.667-42.667-42.667h-18.347c-23.564 0-42.667 19.103-42.667 42.667v96c0 23.564 19.103 42.667 42.667 42.667zM686.507 834.56h18.347c23.564 0 42.667-19.103 42.667-42.667v-96c0-23.564-19.103-42.667-42.667-42.667h-18.347c-23.564 0-42.667 19.103-42.667 42.667v96c0 23.564 19.103 42.667 42.667 42.667z" />
<glyph unicode="&#xe928;" glyph-name="chevron-circle-left" data-tags="chevron-circle-left" d="M512 789.333c-188.513 0-341.333-152.82-341.333-341.333s152.82-341.333 341.333-341.333c188.513 0 341.333 152.82 341.333 341.333v0c0 188.513-152.82 341.333-341.333 341.333v0zM636.16 277.333l-57.173-57.173c-3.619-3.57-8.592-5.774-14.080-5.774s-10.461 2.205-14.082 5.777l0.002-0.002-27.307 27.733-159.147 157.44c-11.286 10.748-18.304 25.888-18.304 42.667s7.019 31.919 18.28 42.644l0.024 0.023 184.32 184.32c3.551 3.545 8.453 5.737 13.867 5.737s10.316-2.192 13.867-5.737v0l56.747-56.32c3.57-3.619 5.774-8.592 5.774-14.080s-2.205-10.461-5.777-14.082l-141.225-141.225 118.187-117.76 27.307-27.733c2.811-3.372 4.517-7.75 4.517-12.527 0-5.444-2.216-10.37-5.796-13.926l-0.001-0.001z" />
<glyph unicode="&#xe929;" glyph-name="chevron-circle-down" data-tags="chevron-circle-down" d="M853.333 448c0 188.513-152.82 341.333-341.333 341.333s-341.333-152.82-341.333-341.333c0-188.513 152.82-341.333 341.333-341.333v0c188.513 0 341.333 152.82 341.333 341.333v0zM469.333 297.813l-184.32 184.32c-3.545 3.551-5.737 8.453-5.737 13.867s2.192 10.316 5.737 13.867v0l56.32 55.040c3.619 3.57 8.592 5.774 14.080 5.774s10.461-2.205 14.082-5.777l141.225-141.225 117.76 118.187 27.733 27.307c3.551 3.545 8.453 5.737 13.867 5.737s10.316-2.192 13.867-5.737v0l57.173-57.173c3.57-3.619 5.774-8.592 5.774-14.080s-2.205-10.461-5.777-14.082l0.002 0.002-27.733-27.307-158.72-160.427c-10.677-10.788-25.486-17.468-41.855-17.468-17.197 0-32.673 7.373-43.438 19.13l-0.040 0.044z" />
<glyph unicode="&#xe92a;" glyph-name="chevron-circle-right" data-tags="chevron-circle-right" d="M512 789.333c-188.513 0-341.333-152.82-341.333-341.333s152.82-341.333 341.333-341.333c188.513 0 341.333 152.82 341.333 341.333v0c0 188.513-152.82 341.333-341.333 341.333v0zM662.187 405.333l-184.32-184.32c-3.551-3.545-8.453-5.737-13.867-5.737s-10.316 2.192-13.867 5.737v0l-55.040 54.187c-3.57 3.619-5.774 8.592-5.774 14.080s2.205 10.461 5.777 14.082l141.225 141.225-117.333 117.76-27.307 27.733c-3.545 3.551-5.737 8.453-5.737 13.867s2.192 10.316 5.737 13.867v0l57.173 57.173c3.619 3.57 8.592 5.774 14.080 5.774s10.461-2.205 14.082-5.777l-0.002 0.002 27.307-27.733 159.573-156.587c10.788-10.677 17.468-25.486 17.468-41.855 0-17.197-7.373-32.673-19.13-43.438l-0.044-0.040z" />
<glyph unicode="&#xe92b;" glyph-name="chevron-circle-up" data-tags="chevron-circle-up" d="M170.667 448c0-188.513 152.82-341.333 341.333-341.333s341.333 152.82 341.333 341.333c0 188.513-152.82 341.333-341.333 341.333v0c-188.513 0-341.333-152.82-341.333-341.333v0zM554.667 598.187l184.32-184.32c3.545-3.551 5.737-8.453 5.737-13.867s-2.192-10.316-5.737-13.867v0l-55.040-55.040c-3.619-3.57-8.592-5.774-14.080-5.774s-10.461 2.205-14.082 5.777l-141.225 141.225-116.907-117.333-27.733-27.307c-3.551-3.545-8.453-5.737-13.867-5.737s-10.316 2.192-13.867 5.737v0l-57.173 57.6c-3.57 3.619-5.774 8.592-5.774 14.080s2.205 10.461 5.777 14.082l-0.002-0.002 27.733 27.307 156.587 159.147c10.677 10.788 25.486 17.468 41.855 17.468 17.197 0 32.673-7.373 43.438-19.13l0.040-0.044z" />
<glyph unicode="&#xe92c;" glyph-name="angle-double-down" data-tags="angle-double-down" d="M647.68 427.947v0l-141.653-141.653-128 128-32 33.707c-3.912 3.797-9.256 6.137-15.147 6.137s-11.234-2.341-15.152-6.142l-51.195-51.195c-3.797-3.912-6.137-9.256-6.137-15.147s2.341-11.234 6.142-15.152l196.262-196.262c11.625-11.463 27.599-18.543 45.227-18.543s33.602 7.079 45.234 18.55l208.206 208.206c3.797 3.912 6.137 9.256 6.137 15.147s-2.341 11.234-6.142 15.152l-51.195 51.195c-3.867 3.898-9.225 6.31-15.147 6.31s-11.28-2.413-15.145-6.309l-0.001-0.001zM677.973 739.84l-171.947-171.947-158.293 158.293c-3.912 3.797-9.256 6.137-15.147 6.137s-11.234-2.341-15.152-6.142l0.005 0.005-52.907-49.493c-3.797-3.912-6.137-9.256-6.137-15.147s2.341-11.234 6.142-15.152l30.288-30.288 165.973-168.107c11.625-11.463 27.599-18.543 45.227-18.543s33.602 7.079 45.234 18.55l208.206 208.206c3.797 3.912 6.137 9.256 6.137 15.147s-2.341 11.234-6.142 15.152l-51.195 51.195c-3.936 4.574-9.731 7.452-16.199 7.452-5.413 0-10.355-2.016-14.117-5.339l0.023 0.020z" />
<glyph unicode="&#xe92d;" glyph-name="angle-double-left" data-tags="angle-double-left" d="M491.947 312.32v0l-141.653 141.653 128 128 33.707 32c3.797 3.912 6.137 9.256 6.137 15.147s-2.341 11.234-6.142 15.152l-51.195 51.195c-3.912 3.797-9.256 6.137-15.147 6.137s-11.234-2.341-15.152-6.142l-30.288-30.288-167.68-165.973c-11.463-11.625-18.543-27.599-18.543-45.227s7.079-33.602 18.55-45.234l208.206-208.206c3.912-3.797 9.256-6.137 15.147-6.137s11.234 2.341 15.152 6.142l51.195 51.195c3.898 3.867 6.31 9.225 6.31 15.147s-2.413 11.28-6.309 15.145l-0.001 0.001zM803.84 282.027l-171.947 171.947 158.293 158.293c3.797 3.912 6.137 9.256 6.137 15.147s-2.341 11.234-6.142 15.152l-51.195 51.195c-3.912 3.797-9.256 6.137-15.147 6.137s-11.234-2.341-15.152-6.142l-194.555-194.555c-11.463-11.625-18.543-27.599-18.543-45.227s7.079-33.602 18.55-45.234l208.206-208.206c3.912-3.797 9.256-6.137 15.147-6.137s11.234 2.341 15.152 6.142l51.195 51.195c3.898 3.867 6.31 9.225 6.31 15.147s-2.413 11.28-6.309 15.145l-0.001 0.001z" />
<glyph unicode="&#xe92e;" glyph-name="angle-double-right" data-tags="angle-double-right" d="M532.053 583.68v0l141.653-141.653-158.293-158.293c-3.797-3.912-6.137-9.256-6.137-15.147s2.341-11.234 6.142-15.152l51.195-51.195c3.912-3.797 9.256-6.137 15.147-6.137s11.234 2.341 15.152 6.142l196.262 196.262c11.463 11.625 18.543 27.599 18.543 45.227s-7.079 33.602-18.55 45.234l0.007-0.007-179.627 176.213-30.293 30.293c-3.912 3.797-9.256 6.137-15.147 6.137s-11.234-2.341-15.152-6.142l-51.195-51.195c-3.898-3.867-6.31-9.225-6.31-15.147s2.413-11.28 6.309-15.145l0.001-0.001zM220.16 613.973l171.947-171.947-158.293-158.293c-3.797-3.912-6.137-9.256-6.137-15.147s2.341-11.234 6.142-15.152l51.195-51.195c3.912-3.797 9.256-6.137 15.147-6.137s11.234 2.341 15.152 6.142l30.288 30.288 166.4 164.267c11.463 11.625 18.543 27.599 18.543 45.227s-7.079 33.602-18.55 45.234l0.007-0.007-180.053 177.92-30.293 30.293c-3.912 3.797-9.256 6.137-15.147 6.137s-11.234-2.341-15.152-6.142l-51.195-51.195c-3.898-3.867-6.31-9.225-6.31-15.147s2.413-11.28 6.309-15.145l0.001-0.001z" />
<glyph unicode="&#xe92f;" glyph-name="angle-double-up" data-tags="angle-double-up" d="M376.32 468.053v0l141.653 141.653 158.293-158.293c3.912-3.797 9.256-6.137 15.147-6.137s11.234 2.341 15.152 6.142l51.195 51.195c3.797 3.912 6.137 9.256 6.137 15.147s-2.341 11.234-6.142 15.152l-194.555 194.555c-11.625 11.463-27.599 18.543-45.227 18.543s-33.602-7.079-45.234-18.55l-208.206-208.206c-3.797-3.912-6.137-9.256-6.137-15.147s2.341-11.234 6.142-15.152l51.195-51.195c3.867-3.898 9.225-6.31 15.147-6.31s11.28 2.413 15.145 6.309l0.001 0.001zM346.027 156.16l171.947 171.947 158.293-158.293c3.912-3.797 9.256-6.137 15.147-6.137s11.234 2.341 15.152 6.142l51.195 51.195c3.797 3.912 6.137 9.256 6.137 15.147s-2.341 11.234-6.142 15.152l-194.555 194.555c-11.625 11.463-27.599 18.543-45.227 18.543s-33.602-7.079-45.234-18.55l-208.206-208.206c-3.797-3.912-6.137-9.256-6.137-15.147s2.341-11.234 6.142-15.152l51.195-51.195c3.867-3.898 9.225-6.31 15.147-6.31s11.28 2.413 15.145 6.309l0.001 0.001z" />
<glyph unicode="&#xe930;" glyph-name="angle-down" data-tags="angle-down" d="M551.253 309.333l208.213 208.213c3.797 3.912 6.137 9.256 6.137 15.147s-2.341 11.234-6.142 15.152l-51.195 51.195c-3.867 3.898-9.225 6.31-15.147 6.31s-11.28-2.413-15.145-6.309l-171.948-171.948-158.293 158.293c-3.912 3.797-9.256 6.137-15.147 6.137s-11.234-2.341-15.152-6.142l0.005 0.005-52.907-49.493c-3.797-3.912-6.137-9.256-6.137-15.147s2.341-11.234 6.142-15.152l196.262-196.262c11.625-11.463 27.599-18.543 45.227-18.543s33.602 7.079 45.234 18.55l-0.007-0.007z" />
<glyph unicode="&#xe931;" glyph-name="angle-left" data-tags="angle-left" d="M373.333 408.747l208.213-208.213c3.912-3.797 9.256-6.137 15.147-6.137s11.234 2.341 15.152 6.142l51.195 51.195c3.898 3.867 6.31 9.225 6.31 15.147s-2.413 11.28-6.309 15.145l-171.948 171.948 158.293 158.293c3.797 3.912 6.137 9.256 6.137 15.147s-2.341 11.234-6.142 15.152l-51.195 51.195c-3.912 3.797-9.256 6.137-15.147 6.137s-11.234-2.341-15.152-6.142l-194.555-194.555c-11.463-11.625-18.543-27.599-18.543-45.227s7.079-33.602 18.55-45.234l-0.007 0.007z" />
<glyph unicode="&#xe932;" glyph-name="angle-right" data-tags="angle-right" d="M650.667 487.253l-208.213 208.213c-3.912 3.797-9.256 6.137-15.147 6.137s-11.234-2.341-15.152-6.142l-51.195-51.195c-3.898-3.867-6.31-9.225-6.31-15.147s2.413-11.28 6.309-15.145l171.948-171.948-158.293-158.293c-3.797-3.912-6.137-9.256-6.137-15.147s2.341-11.234 6.142-15.152l51.195-51.195c3.912-3.797 9.256-6.137 15.147-6.137s11.234 2.341 15.152 6.142l196.262 196.262c10.466 11.417 16.88 26.697 16.88 43.475 0 17.65-7.097 33.642-18.593 45.278l0.006-0.006z" />
<glyph unicode="&#xe933;" glyph-name="angle-up" data-tags="angle-up" d="M472.747 586.667l-208.213-208.213c-3.797-3.912-6.137-9.256-6.137-15.147s2.341-11.234 6.142-15.152l51.195-51.195c3.867-3.898 9.225-6.31 15.147-6.31s11.28 2.413 15.145 6.309l171.948 171.948 158.293-158.293c3.912-3.797 9.256-6.137 15.147-6.137s11.234 2.341 15.152 6.142l51.195 51.195c3.797 3.912 6.137 9.256 6.137 15.147s-2.341 11.234-6.142 15.152l-194.555 194.555c-11.625 11.463-27.599 18.543-45.227 18.543s-33.602-7.079-45.234-18.55l0.007 0.007z" />
<glyph unicode="&#xe934;" glyph-name="upload" data-tags="upload" d="M282.453 509.013h144.213v-210.347c0-11.782 9.551-21.333 21.333-21.333v0h128c11.782 0 21.333 9.551 21.333 21.333v0 210.347h144.213c0.012 0 0.027 0 0.041 0 14.374 0 26.027 11.653 26.027 26.027 0 6.347-2.272 12.164-6.048 16.681l0.033-0.041-229.973 225.707c-4.989 5.267-12.032 8.544-19.84 8.544s-14.851-3.277-19.828-8.532l-0.012-0.012-229.547-225.28c-3.963-4.543-6.38-10.524-6.38-17.070 0-14.374 11.653-26.027 26.027-26.027 0.143 0 0.285 0.001 0.428 0.003h-0.021zM810.667 322.987h-170.667v-20.907c0 0 0-0.001 0-0.001 0-35.196-28.411-63.757-63.55-63.998h-128.023c-0.127-0.001-0.277-0.001-0.427-0.001-35.346 0-64 28.654-64 64 0 0 0 0.001 0 0.001v0 20.907h-170.667c-23.564 0-42.667-19.103-42.667-42.667v0-128c0-23.564 19.103-42.667 42.667-42.667v0h597.333c23.564 0 42.667 19.103 42.667 42.667v0 128c0 23.564-19.103 42.667-42.667 42.667v0zM768 181.333c-17.673 0-32 14.327-32 32s14.327 32 32 32c17.673 0 32-14.327 32-32v0c-0.237-17.577-14.423-31.763-31.977-32h-0.023z" />
<glyph unicode="&#xe935;" glyph-name="ban" data-tags="ban" d="M512 789.333c-188.513 0-341.333-152.82-341.333-341.333s152.82-341.333 341.333-341.333c188.513 0 341.333 152.82 341.333 341.333v0c0 188.513-152.82 341.333-341.333 341.333v0zM512 704c0.198 0.001 0.432 0.001 0.667 0.001 55.317 0 106.488-17.752 148.126-47.87l-0.74 0.509-356.693-356.693c-29.609 40.899-47.361 92.070-47.361 147.387 0 0.234 0 0.469 0.001 0.703v-0.036c0 141.385 114.615 256 256 256v0zM512 192c-0.198-0.001-0.432-0.001-0.667-0.001-55.317 0-106.488 17.752-148.126 47.87l0.74-0.509 356.693 356.693c29.609-40.899 47.361-92.070 47.361-147.387 0-0.234 0-0.469-0.001-0.703v0.036c0-141.385-114.615-256-256-256v0z" />
<glyph unicode="&#xe936;" glyph-name="star-o" data-tags="star-o" d="M686.933 106.667c-10.188 0.085-19.733 2.763-28.029 7.405l0.296-0.152-147.2 81.493-147.2-81.493c-7.951-4.506-17.463-7.162-27.596-7.162-12.378 0-23.831 3.963-33.158 10.69l0.167-0.115c-14.811 10.203-24.395 27.069-24.395 46.173 0 3.588 0.338 7.096 0.984 10.496l-0.055-0.349 28.587 176.64-122.453 125.44c-9.918 10.331-16.025 24.385-16.025 39.866 0 6.338 1.024 12.438 2.915 18.141l-0.117-0.407c6.717 20.286 24.107 35.253 45.348 38.363l0.305 0.037 166.827 25.6 73.813 158.293c9.459 19.631 29.202 32.938 52.053 32.938s42.594-13.307 51.903-32.594l0.15-0.344 75.947-157.44 166.827-25.6c21.547-3.147 38.936-18.114 45.539-38.002l0.114-0.398c1.907-5.48 3.008-11.796 3.008-18.37 0-15.587-6.191-29.728-16.249-40.098l0.014 0.015-122.453-125.44 28.587-176.64c0.591-3.051 0.929-6.559 0.929-10.147 0-19.104-9.585-35.97-24.208-46.051l-0.188-0.122c-9.009-6.695-20.351-10.717-32.632-10.717-0.828 0-1.652 0.018-2.471 0.054l0.116-0.004zM512 274.347c0.225 0.003 0.49 0.005 0.756 0.005 9.936 0 19.243-2.696 27.229-7.396l-0.252 0.137 122.027-67.413-21.76 147.627c-0.463 2.743-0.727 5.902-0.727 9.124 0 15.728 6.303 29.983 16.522 40.378l-0.008-0.008 103.253 105.813-140.373 21.76c-18.991 3.343-34.561 15.534-42.516 32.079l-0.151 0.348-64 130.56-61.44-130.56c-7.867-17.080-23.555-29.38-42.345-32.384l-0.321-0.042-140.373-21.76 102.827-105.813c10.21-10.386 16.514-24.642 16.514-40.369 0-3.221-0.264-6.381-0.773-9.459l0.046 0.335-23.893-147.627 122.027 67.413c7.734 4.563 17.041 7.259 26.977 7.259 0.266 0 0.531-0.002 0.796-0.006h-0.040zM316.16 343.467v0zM708.267 343.467v0z" />
<glyph unicode="&#xe937;" glyph-name="star" data-tags="star" d="M531.627 774.4l85.333-186.88c3.070-6.345 9.015-10.879 16.097-11.932l0.117-0.014 197.973-30.293c10.389-1.552 18.266-10.412 18.266-21.112 0-5.926-2.416-11.288-6.317-15.153l-0.002-0.002-142.080-146.347c-3.817-4.16-6.157-9.729-6.157-15.845 0-1.032 0.067-2.049 0.196-3.046l-0.012 0.118 34.133-207.787c0.142-0.934 0.223-2.011 0.223-3.107 0-12.018-9.742-21.76-21.76-21.76-3.838 0-7.443 0.993-10.574 2.737l0.111-0.057-174.933 96.427c-2.915 1.81-6.452 2.883-10.24 2.883s-7.325-1.073-10.324-2.931l0.084 0.048-174.933-96.427c-3.020-1.687-6.625-2.681-10.463-2.681-12.018 0-21.76 9.742-21.76 21.76 0 1.096 0.081 2.174 0.238 3.226l-0.015-0.119 34.133 207.787c0.117 0.879 0.183 1.896 0.183 2.929 0 6.116-2.34 11.685-6.172 15.862l0.016-0.017-144.213 146.347c-3.903 3.867-6.319 9.229-6.319 15.155 0 10.7 7.877 19.56 18.148 21.097l0.117 0.014 197.973 30.72c7.198 1.068 13.143 5.601 16.158 11.82l0.056 0.127 85.333 186.88c2.987 8.689 11.089 14.821 20.624 14.821 9.692 0 17.905-6.337 20.72-15.094l0.043-0.154z" />
<glyph unicode="&#xe938;" glyph-name="refresh" data-tags="refresh" d="M153.173 507.733c4.206-1.523 9.059-2.404 14.119-2.404 18.301 0 33.912 11.523 39.971 27.709l0.097 0.294c42.688 116.148 152.349 197.506 281.013 197.506 96.227 0 181.826-45.508 236.448-116.176l0.513-0.69-76.8-80.64c-3.1-3.217-5.009-7.599-5.009-12.427 0-9.407 7.249-17.122 16.466-17.862l0.063-0.004h219.733c0.129-0.003 0.28-0.005 0.432-0.005 10.368 0 18.773 8.405 18.773 18.773 0 0.152-0.002 0.303-0.005 0.454v-0.022 222.293c-0.541 9.46-8.345 16.927-17.892 16.927-5.027 0-9.57-2.070-12.824-5.403l-0.003-0.004-81.067-81.493c-70.962 86.761-178.017 141.702-297.905 141.702-165.417 0-306.404-104.593-360.436-251.252l-0.859-2.663c-1.639-4.352-2.588-9.383-2.588-14.635 0-18.211 11.409-33.757 27.469-39.881l0.293-0.098zM870.827 388.267c-4.206 1.523-9.059 2.404-14.119 2.404-18.301 0-33.912-11.523-39.971-27.709l-0.097-0.294c-42.688-116.148-152.349-197.506-281.013-197.506-96.227 0-181.826 45.508-236.448 116.176l-0.513 0.69 76.8 78.507c3.1 3.217 5.009 7.599 5.009 12.427 0 9.407-7.249 17.122-16.466 17.862l-0.063 0.004h-219.733c-0.129 0.003-0.28 0.005-0.432 0.005-10.368 0-18.773-8.405-18.773-18.773 0-0.152 0.002-0.303 0.005-0.454v0.022-222.293c0.541-9.46 8.345-16.927 17.892-16.927 5.027 0 9.57 2.070 12.824 5.403l0.003 0.004 81.067 81.493c70.959-86.381 177.782-141.051 297.375-141.051 165.97 0 307.348 105.294 360.976 252.727l0.849 2.671c1.639 4.352 2.588 9.383 2.588 14.635 0 18.211-11.409 33.757-27.469 39.881l-0.293 0.098z" />
<glyph unicode="&#xe939;" glyph-name="user" data-tags="user" d="M687.787 645.547c0-97.084-78.702-175.787-175.787-175.787s-175.787 78.702-175.787 175.787c0 97.084 78.702 175.787 175.787 175.787s175.787-78.702 175.787-175.787zM670.293 493.653c-39.875-41.867-96.044-67.904-158.293-67.904s-118.418 26.037-158.209 67.815l-0.085 0.089c-58.102-29.271-97.342-88.304-97.706-156.538v-174.556c0.241-48.445 39.448-87.652 87.87-87.893h336.236c48.445 0.241 87.652 39.448 87.893 87.87v174.53c-0.364 68.283-39.604 127.315-96.7 156.126l-1.007 0.461z" />
<glyph unicode="&#xe93a;" glyph-name="window-minimize" data-tags="window-minimize" d="M789.333 808.107h-554.667c-45.714 0-82.773-37.059-82.773-82.773v0-256c0.239-11.833 9.888-21.333 21.756-21.333 0.001 0 0.003 0 0.004 0h36.693c0.001 0 0.003 0 0.004 0 11.868 0 21.516 9.501 21.755 21.311v256.022l2.56 2.56 557.227-2.56-2.56-557.227h-256c-10.872-0.114-19.825-8.183-21.32-18.657l-0.014-0.116v-38.4c0-11.782 9.551-21.333 21.333-21.333v0h256c45.714 0 82.773 37.059 82.773 82.773v552.96c0 45.714-37.059 82.773-82.773 82.773v0zM444.587 570.027c-2.812 2.625-6.599 4.237-10.762 4.237-8.107 0-14.787-6.111-15.684-13.978l-0.007-0.073v-189.013c-0.035-0.392-0.056-0.847-0.056-1.307 0-8.483 6.877-15.36 15.36-15.36 0.32 0 0.637 0.010 0.952 0.029l-0.043-0.002h189.013c8.137 0.432 14.571 7.134 14.571 15.34 0 4.369-1.824 8.311-4.751 11.108l-0.006 0.006-67.84 66.987 145.92 145.92c3.344 3.324 5.414 7.927 5.414 13.013s-2.070 9.689-5.413 13.012l-26.028 26.028c-3.255 3.32-7.787 5.379-12.8 5.379s-9.545-2.058-12.797-5.376l-0.003-0.003-147.627-145.067zM194.56 343.893h170.667c23.564 0 42.667-19.103 42.667-42.667v-170.667c0-23.564-19.103-42.667-42.667-42.667h-170.667c-23.564 0-42.667 19.103-42.667 42.667v170.667c0 23.564 19.103 42.667 42.667 42.667z" />
<glyph unicode="&#xe93b;" glyph-name="window-maximize" data-tags="window-maximize" d="M789.333 808.107h-554.667c-45.714 0-82.773-37.059-82.773-82.773v0-256c0.239-11.833 9.888-21.333 21.756-21.333 0.001 0 0.003 0 0.004 0h36.693c0.001 0 0.003 0 0.004 0 11.868 0 21.516 9.501 21.755 21.311v256.022l2.56 2.56 557.227-2.56-2.56-557.227h-256c-10.872-0.114-19.825-8.183-21.32-18.657l-0.014-0.116v-38.4c0-11.782 9.551-21.333 21.333-21.333v0h256c45.714 0 82.773 37.059 82.773 82.773v552.96c0 45.714-37.059 82.773-82.773 82.773v0zM690.347 436.907c2.8-2.577 6.554-4.157 10.676-4.157 8.53 0 15.48 6.766 15.777 15.223l0.001 0.027v189.013c0.035 0.392 0.056 0.847 0.056 1.307 0 8.483-6.877 15.36-15.36 15.36-0.32 0-0.637-0.010-0.952-0.029l0.043 0.002h-188.587c-8.137-0.432-14.571-7.134-14.571-15.34 0-4.369 1.824-8.311 4.751-11.108l68.699-68.699-147.2-146.773c-3.344-3.324-5.414-7.927-5.414-13.013s2.070-9.689 5.413-13.012l26.028-26.028c3.255-3.32 7.787-5.379 12.8-5.379s9.545 2.058 12.797 5.376l146.35 146.35zM194.56 343.893h170.667c23.564 0 42.667-19.103 42.667-42.667v-170.667c0-23.564-19.103-42.667-42.667-42.667h-170.667c-23.564 0-42.667 19.103-42.667 42.667v170.667c0 23.564 19.103 42.667 42.667 42.667z" />
<glyph unicode="&#xe93c;" glyph-name="external-link" data-tags="external-link" d="M850.347 448h-36.693c-0.001 0-0.003 0-0.004 0-11.868 0-21.516-9.501-21.755-21.311v-256.022l-2.56-2.56-557.227 2.56 2.56 557.227h256c10.872 0.114 19.825 8.183 21.32 18.657l0.014 0.116v38.4c0 11.782-9.551 21.333-21.333 21.333v0h-256c-0.005 0-0.011 0-0.018 0-45.114 0-81.799-36.092-82.754-80.977l-0.001-0.089v-554.667c0-45.714 37.059-82.773 82.773-82.773v0h554.667c45.714 0 82.773 37.059 82.773 82.773v0 256c-0.239 11.833-9.888 21.333-21.756 21.333-0.001 0-0.003 0-0.004 0v0zM701.013 697.6l-225.28-225.28c-3.797-3.912-6.137-9.256-6.137-15.147s2.341-11.234 6.142-15.152l30.288-30.288c3.912-3.797 9.256-6.137 15.147-6.137s11.234 2.341 15.152 6.142l-0.005-0.005 225.28 225.707 79.787-80.213c3.258-3.337 7.801-5.407 12.828-5.407 9.548 0 17.351 7.467 17.89 16.879l0.002 0.048v219.733c0.030 0.39 0.047 0.844 0.047 1.303 0 9.897-8.023 17.92-17.92 17.92-0.317 0-0.632-0.008-0.945-0.024l0.044 0.002h-220.587c-9.46-0.541-16.927-8.345-16.927-17.892 0-5.027 2.070-9.57 5.403-12.824l0.004-0.003z" />
<glyph unicode="&#xe93d;" glyph-name="trash" data-tags="trash" d="M810.667 682.667h-103.253v85.333c0 37.231-30.182 67.413-67.413 67.413h-256c-37.231 0-67.413-30.182-67.413-67.413v0-85.333h-103.253c-11.782 0-21.333-9.551-21.333-21.333v0-42.667c0-11.782 9.551-21.333 21.333-21.333v0h42.667v-426.667c0-47.128 38.205-85.333 85.333-85.333v0h341.333c47.128 0 85.333 38.205 85.333 85.333v0 426.667h42.667c11.782 0 21.333 9.551 21.333 21.333v0 42.667c0 11.782-9.551 21.333-21.333 21.333v0zM408.747 721.92c0.234 11.687 9.647 21.099 21.311 21.333h163.862c11.687-0.234 21.099-9.647 21.333-21.311v-39.275h-206.507zM416 170.667c0-11.782-9.551-21.333-21.333-21.333v0h-21.333c-11.782 0-21.333 9.551-21.333 21.333v0 298.667c0 11.782 9.551 21.333 21.333 21.333v0h21.333c11.782 0 21.333-9.551 21.333-21.333v0zM544 170.667c0-11.782-9.551-21.333-21.333-21.333v0h-21.333c-11.782 0-21.333 9.551-21.333 21.333v0 298.667c0 11.782 9.551 21.333 21.333 21.333v0h21.333c11.782 0 21.333-9.551 21.333-21.333v0zM672 170.667c0-11.782-9.551-21.333-21.333-21.333v0h-21.333c-11.782 0-21.333 9.551-21.333 21.333v0 298.667c0 11.782 9.551 21.333 21.333 21.333v0h21.333c11.782 0 21.333-9.551 21.333-21.333v0z" />
<glyph unicode="&#xe93e;" glyph-name="user-minus" data-tags="user-minus" d="M687.787 645.547c0-97.084-78.702-175.787-175.787-175.787s-175.787 78.702-175.787 175.787c0 97.084 78.702 175.787 175.787 175.787s175.787-78.702 175.787-175.787zM618.667 322.987h298.667c11.782 0 21.333-9.551 21.333-21.333v-48.64c0-11.782-9.551-21.333-21.333-21.333h-298.667c-11.782 0-21.333 9.551-21.333 21.333v48.64c0 11.782 9.551 21.333 21.333 21.333zM554.667 253.013v48.64c0 35.346 28.654 64 64 64v0h146.773c-9.988 56.423-45.602 102.865-94.142 127.537l-1.005 0.463c-39.875-41.867-96.044-67.904-158.293-67.904s-118.418 26.037-158.209 67.815l-0.085 0.089c-58.102-29.271-97.342-88.304-97.706-156.538v-174.556c0.241-48.445 39.448-87.652 87.87-87.893h336.236c48.445 0.241 87.652 39.448 87.893 87.87v26.476h-149.333c-35.346 0-64 28.654-64 64v0z" />
<glyph unicode="&#xe93f;" glyph-name="user-plus" data-tags="user-plus" d="M679.68 189.013h-61.013c-35.346 0-64 28.654-64 64v0 48.64c0 35.346 28.654 64 64 64v0h61.013v61.013c0 0.012 0 0.026 0 0.040 0 18.807 8.222 35.694 21.268 47.263l0.066 0.057c-8.938 6.944-18.992 13.455-29.59 19.079l-1.13 0.547c-39.875-41.867-96.044-67.904-158.293-67.904s-118.418 26.037-158.209 67.815l-0.085 0.089c-58.102-29.271-97.342-88.304-97.706-156.538v-174.556c0.241-48.445 39.448-87.652 87.87-87.893h336.236c8.441 0.195 16.486 1.585 24.071 4.007l-0.604-0.167c-14.613 11.668-23.893 29.482-23.893 49.464 0 0.010 0 0.021 0 0.031v-0.002zM687.787 645.547c0-97.084-78.702-175.787-175.787-175.787s-175.787 78.702-175.787 175.787c0 97.084 78.702 175.787 175.787 175.787s175.787-78.702 175.787-175.787zM917.333 322.987h-103.68v103.68c0 11.782-9.551 21.333-21.333 21.333v0h-48.64c-11.782 0-21.333-9.551-21.333-21.333v0-103.68h-103.68c-11.782 0-21.333-9.551-21.333-21.333v0-48.64c0-11.782 9.551-21.333 21.333-21.333v0h103.68v-103.68c0-11.782 9.551-21.333 21.333-21.333v0h48.64c11.782 0 21.333 9.551 21.333 21.333v0 103.68h103.68c11.782 0 21.333 9.551 21.333 21.333v0 48.64c0 11.782-9.551 21.333-21.333 21.333v0z" />
<glyph unicode="&#xe940;" glyph-name="clock" data-tags="clock" d="M512 789.333c-188.513 0-341.333-152.82-341.333-341.333s152.82-341.333 341.333-341.333c188.513 0 341.333 152.82 341.333 341.333v0c0 188.513-152.82 341.333-341.333 341.333v0zM512 192c-141.385 0-256 114.615-256 256s114.615 256 256 256c141.385 0 256-114.615 256-256v0c0-141.385-114.615-256-256-256v0zM533.333 613.12h-32c-11.782 0-21.333-9.551-21.333-21.333v0-149.333h-74.667c-11.782 0-21.333-9.551-21.333-21.333v0-32c0-11.782 9.551-21.333 21.333-21.333v0h128c11.782 0 21.333 9.551 21.333 21.333v0 202.667c0 11.782-9.551 21.333-21.333 21.333v0z" />
<glyph unicode="&#xe941;" glyph-name="users" data-tags="users" d="M686.507 641.28c0-97.084-78.702-175.787-175.787-175.787s-175.787 78.702-175.787 175.787c0 97.084 78.702 175.787 175.787 175.787s175.787-78.702 175.787-175.787zM669.013 490.667c-39.875-41.867-96.044-67.904-158.293-67.904s-118.418 26.037-158.209 67.815l-0.085 0.089c-57.665-29.637-96.43-88.719-96.43-156.855 0-0.356 0.001-0.711 0.003-1.067v0.055-174.507c0.209-47.567 37.988-86.242 85.182-87.889l0.151-0.004h336.213c0.635-0.016 1.384-0.026 2.134-0.026 48.637 0 88.091 39.314 88.319 87.897v174.529c-0.104 69.039-39.991 128.737-97.959 157.407l-1.028 0.46zM810.667 632.32c60.242 0.723 108.8 49.727 108.8 110.073 0 60.796-49.284 110.080-110.080 110.080-60.793 0-110.076-49.28-110.080-110.072v0c-0.001-0.131-0.001-0.285-0.001-0.44 0-60.56 49.093-109.653 109.653-109.653 0.6 0 1.2 0.005 1.798 0.014l-0.090-0.001zM213.333 632.32c0.381-0.005 0.83-0.007 1.28-0.007 60.796 0 110.080 49.284 110.080 110.080s-49.284 110.080-110.080 110.080c-60.793 0-110.076-49.28-110.080-110.072v0c-0.001-0.128-0.001-0.279-0.001-0.43 0-60.26 48.609-109.167 108.755-109.65h0.046zM908.8 647.253c-24.937-26.29-60.124-42.647-99.13-42.647-29.346 0-56.53 9.258-78.79 25.014l0.426-0.286c-2.33-34.274-12.010-65.827-27.465-93.738l0.585 1.151c52.954-32.164 89.227-87.242 95.089-151.12l0.057-0.773h115.2c30.398 0 55.040 24.642 55.040 55.040v0 109.227c-0.268 42.726-24.742 79.673-60.387 97.844l-0.626 0.29zM317.013 536.747c-14.977 26.193-24.675 57.19-26.846 90.242l-0.034 0.638c-21.302-14.404-47.563-22.993-75.829-22.993-38.993 0-74.169 16.346-99.048 42.56l-0.057 0.060c-36.272-18.46-60.746-55.407-61.013-98.097v-109.263c0-30.398 24.642-55.040 55.040-55.040v0h112.64c5.991 64.629 42.241 119.68 94.274 151.399l0.873 0.494z" />
<glyph unicode="&#xe942;" glyph-name="pencil" data-tags="pencil" d="M800.853 661.333l-75.52 75.52c-8.989 11.049-22.586 18.051-37.818 18.051-11.376 0-21.841-3.906-30.125-10.449l0.103 0.078-30.293-30.293 151.040-151.040 32.427 30.293c5.98 7.989 9.575 18.064 9.575 28.979 0 15.828-7.561 29.891-19.268 38.773l-0.121 0.088zM220.16 306.773l-15.36-165.973 165.973 15.36 377.173 377.173-150.613 150.613zM251.733 288l29.867 32 102.4-102.4-30.293-29.867-55.040-5.12 4.693 55.040-56.747-2.987 5.12 55.040z" />
<glyph unicode="&#xe943;" glyph-name="cloud-download" data-tags="cloud-download" d="M725.333 527.36c0 2.133 0 3.84 0 5.973-0.239 46.947-38.352 84.913-85.332 84.913-21.23 0-40.649-7.753-55.581-20.582l0.113 0.095c-26.218 62.624-86.998 105.82-157.867 105.82-94.109 0-170.427-76.171-170.666-170.224v-0.023c-0.201-3.378-0.316-7.329-0.316-11.307s0.115-7.928 0.341-11.849l-0.025 0.542c-51.619-30-85.772-85.038-85.772-148.054 0-94.257 76.41-170.667 170.667-170.667 0.154 0 0.308 0 0.462 0.001h341.309c93.373 1.155 168.621 77.117 168.621 170.654 0 78.35-52.797 144.369-124.754 164.42l-1.2 0.286zM637.013 376.747l-114.773-113.92c-2.364-2.809-5.882-4.582-9.813-4.582s-7.449 1.773-9.797 4.562l-0.016 0.019-115.2 113.92c-2.168 2.348-3.497 5.499-3.497 8.96 0 7.305 5.922 13.227 13.227 13.227 0.030 0 0.059 0 0.089 0h83.195v122.453c0.231 8.624 7.162 15.555 15.765 15.786h31.595c8.624-0.231 15.555-7.162 15.786-15.765v-122.475h83.2c0.025 0 0.055 0 0.084 0 7.305 0 13.227-5.922 13.227-13.227 0-3.461-1.329-6.612-3.506-8.969l0.008 0.009z" />
<glyph unicode="&#xe944;" glyph-name="cloud-upload" data-tags="cloud-upload" d="M725.333 527.36c0 2.133 0 3.84 0 5.973-0.239 46.947-38.352 84.913-85.332 84.913-21.23 0-40.649-7.753-55.581-20.582l0.113 0.095c-26.218 62.624-86.998 105.82-157.867 105.82-94.109 0-170.427-76.171-170.666-170.224v-0.023c-0.201-3.378-0.316-7.329-0.316-11.307s0.115-7.928 0.341-11.849l-0.025 0.542c-51.619-30-85.772-85.038-85.772-148.054 0-94.257 76.41-170.667 170.667-170.667 0.154 0 0.308 0 0.462 0.001h341.309c93.373 1.155 168.621 77.117 168.621 170.654 0 78.35-52.797 144.369-124.754 164.42l-1.2 0.286zM627.2 412.587h-83.627v-122.453c-0.231-8.624-7.162-15.555-15.765-15.786h-31.595c-8.624 0.231-15.555 7.162-15.786 15.765v122.475h-83.2c-0.025 0-0.055 0-0.084 0-7.305 0-13.227 5.922-13.227 13.227 0 3.461 1.329 6.612 3.506 8.969l-0.008-0.009 114.773 113.92c2.364 2.809 5.882 4.582 9.813 4.582s7.449-1.773 9.797-4.562l0.016-0.019 114.773-113.92c2.168-2.348 3.497-5.499 3.497-8.96 0-7.305-5.922-13.227-13.227-13.227-0.030 0-0.059 0-0.089 0h0.005z" />
<glyph unicode="&#xe945;" glyph-name="cloud" data-tags="cloud" d="M725.333 527.36c0 2.133 0 3.84 0 5.973-0.239 46.947-38.352 84.913-85.332 84.913-21.23 0-40.649-7.753-55.581-20.582l0.113 0.095c-26.218 62.624-86.998 105.82-157.867 105.82-94.109 0-170.427-76.171-170.666-170.224v-0.023c-0.201-3.378-0.316-7.329-0.316-11.307s0.115-7.928 0.341-11.849l-0.025 0.542c-51.619-30-85.772-85.038-85.772-148.054 0-94.257 76.41-170.667 170.667-170.667 0.154 0 0.308 0 0.462 0.001h341.309c93.373 1.155 168.621 77.117 168.621 170.654 0 78.35-52.797 144.369-124.754 164.42l-1.2 0.286z" />
<glyph unicode="&#xe946;" glyph-name="align-right" data-tags="align-right" d="M405.333 746.667h426.667c11.782 0 21.333-9.551 21.333-21.333v-42.667c0-11.782-9.551-21.333-21.333-21.333h-426.667c-11.782 0-21.333 9.551-21.333 21.333v42.667c0 11.782 9.551 21.333 21.333 21.333zM192 576h640c11.782 0 21.333-9.551 21.333-21.333v-42.667c0-11.782-9.551-21.333-21.333-21.333h-640c-11.782 0-21.333 9.551-21.333 21.333v42.667c0 11.782 9.551 21.333 21.333 21.333zM405.333 405.333h426.667c11.782 0 21.333-9.551 21.333-21.333v-42.667c0-11.782-9.551-21.333-21.333-21.333h-426.667c-11.782 0-21.333 9.551-21.333 21.333v42.667c0 11.782 9.551 21.333 21.333 21.333zM192 234.667h640c11.782 0 21.333-9.551 21.333-21.333v-42.667c0-11.782-9.551-21.333-21.333-21.333h-640c-11.782 0-21.333 9.551-21.333 21.333v42.667c0 11.782 9.551 21.333 21.333 21.333z" />
<glyph unicode="&#xe947;" glyph-name="align-left" data-tags="align-left" d="M192 746.667h426.667c11.782 0 21.333-9.551 21.333-21.333v-42.667c0-11.782-9.551-21.333-21.333-21.333h-426.667c-11.782 0-21.333 9.551-21.333 21.333v42.667c0 11.782 9.551 21.333 21.333 21.333zM192 576h640c11.782 0 21.333-9.551 21.333-21.333v-42.667c0-11.782-9.551-21.333-21.333-21.333h-640c-11.782 0-21.333 9.551-21.333 21.333v42.667c0 11.782 9.551 21.333 21.333 21.333zM192 405.333h426.667c11.782 0 21.333-9.551 21.333-21.333v-42.667c0-11.782-9.551-21.333-21.333-21.333h-426.667c-11.782 0-21.333 9.551-21.333 21.333v42.667c0 11.782 9.551 21.333 21.333 21.333zM192 234.667h640c11.782 0 21.333-9.551 21.333-21.333v-42.667c0-11.782-9.551-21.333-21.333-21.333h-640c-11.782 0-21.333 9.551-21.333 21.333v42.667c0 11.782 9.551 21.333 21.333 21.333z" />
<glyph unicode="&#xe948;" glyph-name="align-center" data-tags="align-center" d="M320 746.667h384c11.782 0 21.333-9.551 21.333-21.333v-42.667c0-11.782-9.551-21.333-21.333-21.333h-384c-11.782 0-21.333 9.551-21.333 21.333v42.667c0 11.782 9.551 21.333 21.333 21.333zM192 576h640c11.782 0 21.333-9.551 21.333-21.333v-42.667c0-11.782-9.551-21.333-21.333-21.333h-640c-11.782 0-21.333 9.551-21.333 21.333v42.667c0 11.782 9.551 21.333 21.333 21.333zM320 405.333h384c11.782 0 21.333-9.551 21.333-21.333v-42.667c0-11.782-9.551-21.333-21.333-21.333h-384c-11.782 0-21.333 9.551-21.333 21.333v42.667c0 11.782 9.551 21.333 21.333 21.333zM192 234.667h640c11.782 0 21.333-9.551 21.333-21.333v-42.667c0-11.782-9.551-21.333-21.333-21.333h-640c-11.782 0-21.333 9.551-21.333 21.333v42.667c0 11.782 9.551 21.333 21.333 21.333z" />
<glyph unicode="&#xe949;" glyph-name="align-justify" data-tags="align-justify" d="M192 746.667h640c11.782 0 21.333-9.551 21.333-21.333v-42.667c0-11.782-9.551-21.333-21.333-21.333h-640c-11.782 0-21.333 9.551-21.333 21.333v42.667c0 11.782 9.551 21.333 21.333 21.333zM192 576h640c11.782 0 21.333-9.551 21.333-21.333v-42.667c0-11.782-9.551-21.333-21.333-21.333h-640c-11.782 0-21.333 9.551-21.333 21.333v42.667c0 11.782 9.551 21.333 21.333 21.333zM192 405.333h640c11.782 0 21.333-9.551 21.333-21.333v-42.667c0-11.782-9.551-21.333-21.333-21.333h-640c-11.782 0-21.333 9.551-21.333 21.333v42.667c0 11.782 9.551 21.333 21.333 21.333zM192 234.667h640c11.782 0 21.333-9.551 21.333-21.333v-42.667c0-11.782-9.551-21.333-21.333-21.333h-640c-11.782 0-21.333 9.551-21.333 21.333v42.667c0 11.782 9.551 21.333 21.333 21.333z" />
<glyph unicode="&#xe94a;" glyph-name="cog" data-tags="cog" d="M832.427 508.16l-85.333 14.080c-4.9 15.611-10.688 29.028-17.657 41.705l0.59-1.172 50.773 69.547c1.604 3.817 2.535 8.254 2.535 12.909 0 10.348-4.605 19.62-11.877 25.88l-0.045 0.038-36.267 36.267c-6.297 7.317-15.57 11.922-25.918 11.922-4.654 0-9.091-0.932-13.134-2.619l0.226 0.083-69.547-49.067c-11.505 6.378-24.922 12.167-38.932 16.627l-1.601 0.44-14.080 85.333c-5.988 11.563-17.862 19.328-31.55 19.328-1.060 0-2.109-0.047-3.145-0.138l0.134 0.010h-51.2c-0.665 0.044-1.441 0.070-2.223 0.070-14.33 0-26.672-8.511-32.247-20.755l-0.090-0.222-14.080-85.333c-15.611-4.9-29.028-10.688-41.705-17.657l1.172 0.59-69.547 50.773c-3.817 1.604-8.254 2.535-12.909 2.535-10.348 0-19.62-4.605-25.88-11.877l-0.038-0.045-36.267-36.267c-7.317-6.297-11.922-15.57-11.922-25.918 0-4.654 0.932-9.091 2.619-13.134l-0.083 0.226 49.067-69.547c-6.378-11.505-12.167-24.922-16.627-38.932l-0.44-1.601-85.333-14.080c-11.563-5.988-19.328-17.862-19.328-31.55 0-1.060 0.047-2.109 0.138-3.145l-0.010 0.134v-51.2c-0.044-0.665-0.070-1.441-0.070-2.223 0-14.33 8.511-26.672 20.755-32.247l0.222-0.090 85.333-14.080c4.9-15.611 10.688-29.028 17.657-41.705l-0.59 1.172-50.773-69.547c-1.604-3.817-2.535-8.254-2.535-12.909 0-10.348 4.605-19.62 11.877-25.88l0.045-0.038 36.267-36.267c6.297-7.317 15.57-11.922 25.918-11.922 4.654 0 9.091 0.932 13.134 2.619l-0.226-0.083 69.547 49.067c11.505-6.378 24.922-12.167 38.932-16.627l1.601-0.44 14.080-85.333c5.665-12.465 18.007-20.977 32.337-20.977 0.782 0 1.558 0.025 2.328 0.075l-0.105-0.005h51.2c0.665-0.044 1.441-0.070 2.223-0.070 14.33 0 26.672 8.511 32.247 20.755l0.090 0.222 14.080 85.333c15.611 4.9 29.028 10.688 41.705 17.657l-1.172-0.59 69.547-49.067c3.817-1.604 8.254-2.535 12.909-2.535 10.348 0 19.62 4.605 25.88 11.877l0.038 0.045 36.267 36.267c7.317 6.297 11.922 15.57 11.922 25.918 0 4.654-0.932 9.091-2.619 13.134l0.083-0.226-49.067 69.547c6.378 11.505 12.167 24.922 16.627 38.932l0.44 1.601 85.333 14.080c11.563 5.988 19.328 17.862 19.328 31.55 0 1.060-0.047 2.109-0.138 3.145l0.010-0.134v51.2c0.044 0.665 0.070 1.441 0.070 2.223 0 14.33-8.511 26.672-20.755 32.247l-0.222 0.090zM512 323.84c-68.572 0-124.16 55.588-124.16 124.16s55.588 124.16 124.16 124.16c68.572 0 124.16-55.588 124.16-124.16v0c-0.242-68.474-55.686-123.918-124.137-124.16h-0.023z" />
<glyph unicode="&#xe94b;" glyph-name="print" data-tags="print" d="M768 618.667h-85.333v128c0 23.564-19.103 42.667-42.667 42.667v0h-341.333c-23.564 0-42.667-19.103-42.667-42.667v0-128c-47.128 0-85.333-38.205-85.333-85.333v0-234.667c0.234-11.687 9.647-21.099 21.311-21.333h64.022v-128c0-23.564 19.103-42.667 42.667-42.667v0h341.333c23.564 0 42.667 19.103 42.667 42.667v0 128h149.333c11.687 0.234 21.099 9.647 21.333 21.311v234.689c0 47.128-38.205 85.333-85.333 85.333v0zM320 725.333h256v-21.333c0.234-11.687 9.647-21.099 21.311-21.333h21.355v-149.333h-298.667v192zM618.667 170.667h-298.667v170.667h298.667v-170.667zM768 501.333c-17.673 0-32 14.327-32 32s14.327 32 32 32c17.673 0 32-14.327 32-32v0c-0.237-17.577-14.423-31.763-31.977-32h-0.023z" />
<glyph unicode="&#xe94c;" glyph-name="filter" data-tags="filter" d="M790.613 789.333h-557.227c-17.708-0.262-31.962-14.678-31.962-32.423 0-7.99 2.89-15.305 7.681-20.957l-0.039 0.047 217.6-216.32v-270.933c-0.028-0.412-0.044-0.894-0.044-1.379 0-5.145 1.785-9.872 4.77-13.597l-0.033 0.043 131.84-128c4.267-4.267 34.133 0 34.133 42.667v371.2l217.6 216.747c4.83 5.573 7.774 12.896 7.774 20.907 0 17.673-14.327 32-32 32-0.033 0-0.066 0-0.099 0h0.005z" />
<glyph unicode="&#xe94d;" glyph-name="replay" data-tags="replay" d="M823.467 756.053l-68.693-69.12c-61.888 62.497-147.711 101.194-242.573 101.194-188.513 0-341.333-152.82-341.333-341.333s152.82-341.333 341.333-341.333c154.74 0 285.431 102.968 327.292 244.124l0.614 2.415c0.864 3.207 1.36 6.89 1.36 10.688 0 23.564-19.103 42.667-42.667 42.667-0.478 0-0.955-0.008-1.43-0.023l0.069 0.002c-0.033 0-0.071 0-0.11 0-18.678 0-34.552-12.002-40.333-28.714l-0.090-0.3c-31.908-107.6-129.887-184.75-245.885-184.75-14.723 0-29.156 1.243-43.199 3.629l1.511-0.212c-109.168 24.767-192.85 111.312-213.069 220.152l-0.265 1.715c-1.099 8.907-1.726 19.218-1.726 29.675 0 141.385 114.615 256 256 256 71.498 0 136.15-29.311 182.596-76.571l0.036-0.037-12.8-12.8-76.8-79.787c-3.1-3.217-5.009-7.599-5.009-12.427 0-9.407 7.249-17.122 16.466-17.862l0.063-0.004h219.733c0.071-0.001 0.155-0.002 0.239-0.002 10.368 0 18.773 8.405 18.773 18.773 0 1.055-0.087 2.090-0.254 3.098l0.015-0.109v219.733c-0.925 9.111-8.556 16.161-17.833 16.161-4.639 0-8.866-1.762-12.048-4.654l0.015 0.013z" />
<glyph unicode="&#xe94e;" glyph-name="bookmark" data-tags="bookmark" d="M725.333 106.667l-213.333 146.347-213.333-146.347v634.027c-0.050 0.801-0.078 1.738-0.078 2.681 0 24.276 18.772 44.167 42.591 45.95l0.154 0.009h341.333c23.973-1.792 42.745-21.684 42.745-45.959 0-0.943-0.028-1.88-0.084-2.809l0.006 0.128z" />
<glyph unicode="&#xe94f;" glyph-name="globe" data-tags="globe" d="M512 789.333c-188.513 0-341.333-152.82-341.333-341.333s152.82-341.333 341.333-341.333c188.513 0 341.333 152.82 341.333 341.333v0c0 188.513-152.82 341.333-341.333 341.333v0zM765.013 561.067v-2.133l-11.947 12.8v11.52l-11.52 9.813-3.84 4.267h-12.373l3.84-11.947 16.213-8.533 2.56-2.987h-3.413v-9.387l-7.68-3.413h-6.4l-5.12 5.547h11.093l2.56 3.84-23.467 16.213-2.987 6.4-9.387-8.96-9.813 2.133-14.933-19.2-2.987-7.68h-23.893l-8.533 3.84-2.987 15.787 2.987 8.107 14.080 2.987 15.787-2.987 2.133 8.533h-6.827l2.133 13.227 15.787 2.56 11.093 15.787h21.76c17.836-19.097 33.189-40.852 45.331-64.526l0.749-1.607zM711.68 640h-2.56l-2.987 7.253zM701.44 650.24h-4.267v4.267zM670.293 632.747l-6.827 4.267-4.693 2.987v4.693l2.987 4.693h9.813l2.56-11.947 5.547-8.533 3.413-4.267 6.4-2.56-6.827-5.547h-20.48v10.24h7.253zM662.187 632.747v-6.4l-12.8-8.96h-6.827v8.533l5.973 9.813h8.107zM373.76 688.213v0-5.12h20.48l-2.56 6.4h-17.067c7.718 4.702 16.959 9.549 26.504 13.841l1.656 0.666h13.227l10.667 3.413 6.4-2.987-11.52-10.667h-15.36c0.199-1.601 0.313-3.454 0.313-5.333s-0.114-3.732-0.334-5.552l0.022 0.219h20.48v5.12h12.8v7.68h-7.68l5.973 8.107h26.027l-11.093-10.24v-7.68h11.52v14.080l12.373 3.84 19.627 2.56 28.587-12.8v-10.667l9.387-2.56-4.693-8.533h-13.227l-4.267-8.107-29.44 6.827 23.467 12.373-8.96 7.68-20.053-2.56-7.68-8.107h-9.387v-4.693h-4.267v-4.267h-7.68v8.96l-13.227-3.84-27.307-16.213 2.987-11.093 7.68-5.12h15.36v-25.173h6.827l6.4 13.653 16.213 5.12v23.893l6.4 4.693 21.76-4.693v-14.080h5.547l15.36 8.107v-17.92l11.52-7.253v-11.52l-11.52-2.987v-3.413l13.653-5.973v-7.68h-3.84l-17.067 5.12v5.547l7.253 3.413v5.973h-5.12v-4.693h-16.213l-2.56 4.693h-9.813l-2.987-2.56v-5.547h11.093l-5.12-5.973-2.56 2.987h-4.693l-13.653-12.8-20.053-11.093-18.773-19.627v-8.533l-18.773-12.8-8.96-9.387v-18.347l-12.8 5.973v8.107h-35.84l-18.347-9.387-8.107-14.933-3.413-11.52 5.547-11.52h14.507l23.467 15.36 2.133-7.68-7.253-13.653 17.493-2.987 2.133-27.307 24.32-4.267 15.36 17.92 18.773-3.84 6.4-8.96h17.92v5.547l9.813-5.12 11.093-17.493h19.2l7.253-12.373v-15.36l21.333-8.107h29.867l7.68-13.227 11.947-3.413v-10.667l-13.227-16.64-3.84-36.693-11.52-9.387h-20.907l-5.973-10.24 4.267-18.773-19.2-24.32-5.973-11.52-17.92-8.533h-11.947v-5.12l8.107-2.56v-5.12l-7.68-7.253 4.693-5.973h8.96v-7.253l-2.56-6.827v-5.547l12.373-10.24c-10.667 0-20.907 0-31.147 3.84l-5.973 5.547-14.080 24.747v23.893l-10.667 14.080 4.267 23.893h-5.973v49.92s-17.92 13.227-18.773 13.227l-9.387 2.56v9.813l-23.040 29.013 2.56 10.24v17.067l15.787 11.093-2.133 18.773-23.467 2.133-20.053 22.613-12.8 3.84h-8.107v7.68h-10.667v-4.267l-26.453 6.4-10.24 20.48 4.693 7.68-17.067 24.747-2.987 17.92h-6.827l2.56-17.493 11.52-17.92v-7.253h-9.813l-11.947 20.48v20.48c22.54 63.527 65.458 115.145 120.752 148.2l1.275 0.706zM501.76 599.893v-3.84h-4.267v-3.84h-8.533v3.84h8.533v4.267h3.413zM478.293 592.64v-4.267h-8.96v4.267l2.56 3.413zM738.133 286.293l-3.84 5.547v24.32l-8.96 8.96v9.813l11.52 21.76-21.333 37.547 2.133 25.6-19.2 2.133-6.827 7.253h-13.227l-6.4-6.4h-35.84l-29.013 33.28v25.6h4.693v9.813h-6.827l-2.987 10.667 33.707 24.32v17.067l16.64 9.387h20.053l10.24 4.693 34.133 2.987v-17.493l27.307-6.827 5.12-3.84h5.12v9.387h15.36l2.987-2.56c10.337-27.116 16.421-58.468 16.64-91.213v-0.093c-0.081-60.759-19.749-116.909-53.026-162.491l0.546 0.785z" />
<glyph unicode="&#xe950;" glyph-name="ellipsis-v" data-tags="ellipsis-v" d="M597.333 704c0-47.128-38.205-85.333-85.333-85.333s-85.333 38.205-85.333 85.333c0 47.128 38.205 85.333 85.333 85.333s85.333-38.205 85.333-85.333zM597.333 448c0-47.128-38.205-85.333-85.333-85.333s-85.333 38.205-85.333 85.333c0 47.128 38.205 85.333 85.333 85.333s85.333-38.205 85.333-85.333zM597.333 192c0-47.128-38.205-85.333-85.333-85.333s-85.333 38.205-85.333 85.333c0 47.128 38.205 85.333 85.333 85.333s85.333-38.205 85.333-85.333z" />
<glyph unicode="&#xe951;" glyph-name="ellipsis-h" data-tags="ellipsis-h" d="M341.333 448c0-47.128-38.205-85.333-85.333-85.333s-85.333 38.205-85.333 85.333c0 47.128 38.205 85.333 85.333 85.333s85.333-38.205 85.333-85.333zM597.333 448c0-47.128-38.205-85.333-85.333-85.333s-85.333 38.205-85.333 85.333c0 47.128 38.205 85.333 85.333 85.333s85.333-38.205 85.333-85.333zM853.333 448c0-47.128-38.205-85.333-85.333-85.333s-85.333 38.205-85.333 85.333c0 47.128 38.205 85.333 85.333 85.333s85.333-38.205 85.333-85.333z" />
<glyph unicode="&#xe952;" glyph-name="calendar-times" data-tags="calendar-times" d="M810.667 744.107h-63.147v47.787c0 23.564-19.103 42.667-42.667 42.667v0h-18.347c-23.564 0-42.667-19.103-42.667-42.667v0-47.787h-262.827v45.227c0 23.564-19.103 42.667-42.667 42.667v0h-18.347c-23.564 0-42.667-19.103-42.667-42.667v0-46.933h-64c-23.564 0-42.667-19.103-42.667-42.667v0-597.333c0-23.564 19.103-42.667 42.667-42.667v0h597.333c23.564 0 42.667 19.103 42.667 42.667v0 597.333c0.022 0.509 0.034 1.106 0.034 1.707 0 23.564-19.103 42.667-42.667 42.667-0.012 0-0.024 0-0.036 0h0.002zM789.333 168.107c0-23.564-19.103-42.667-42.667-42.667v0h-469.333c-23.564 0-42.667 19.103-42.667 42.667v0 357.973c0 23.564 19.103 42.667 42.667 42.667v0h469.333c23.564 0 42.667-19.103 42.667-42.667v0zM674.56 470.187l-37.973 37.973c-4.883 4.981-11.681 8.068-19.2 8.068s-14.317-3.087-19.196-8.064l-85.337-85.337-85.333 85.333c-4.883 4.981-11.681 8.068-19.2 8.068s-14.317-3.087-19.196-8.064l-37.977-37.977c-4.981-4.883-8.068-11.681-8.068-19.2s3.087-14.317 8.064-19.196l85.337-85.337-85.333-85.333c-4.981-4.883-8.068-11.681-8.068-19.2s3.087-14.317 8.064-19.196l37.977-37.977c4.883-4.981 11.681-8.068 19.2-8.068s14.317 3.087 19.196 8.064l85.337 85.337 85.333-85.333c4.883-4.981 11.681-8.068 19.2-8.068s14.317 3.087 19.196 8.064l37.977 37.977c4.981 4.883 8.068 11.681 8.068 19.2s-3.087 14.317-8.064 19.196l-85.337 85.337 85.333 85.333c4.981 4.883 8.068 11.681 8.068 19.2s-3.087 14.317-8.064 19.196l-0.004 0.004z" />
<glyph unicode="&#xe953;" glyph-name="calendar-minus" data-tags="calendar-minus" d="M810.667 744.107h-63.147v47.787c0 23.564-19.103 42.667-42.667 42.667v0h-18.347c-23.564 0-42.667-19.103-42.667-42.667v0-47.787h-262.827v45.227c0 23.564-19.103 42.667-42.667 42.667v0h-18.347c-23.564 0-42.667-19.103-42.667-42.667v0-46.933h-64c-23.564 0-42.667-19.103-42.667-42.667v0-597.333c0-23.564 19.103-42.667 42.667-42.667v0h597.333c23.564 0 42.667 19.103 42.667 42.667v0 597.333c0.022 0.509 0.034 1.106 0.034 1.707 0 23.564-19.103 42.667-42.667 42.667-0.012 0-0.024 0-0.036 0h0.002zM789.333 168.107c0-23.564-19.103-42.667-42.667-42.667v0h-469.333c-23.564 0-42.667 19.103-42.667 42.667v0 357.973c0 23.564 19.103 42.667 42.667 42.667v0h469.333c23.564 0 42.667-19.103 42.667-42.667v0zM362.667 390.827h298.667c11.782 0 21.333-9.551 21.333-21.333v-47.787c0-11.782-9.551-21.333-21.333-21.333h-298.667c-11.782 0-21.333 9.551-21.333 21.333v47.787c0 11.782 9.551 21.333 21.333 21.333z" />
<glyph unicode="&#xe954;" glyph-name="calendar-plus" data-tags="calendar-plus" d="M810.667 744.107h-63.147v47.787c0 23.564-19.103 42.667-42.667 42.667v0h-18.347c-23.564 0-42.667-19.103-42.667-42.667v0-47.787h-262.827v45.227c0 23.564-19.103 42.667-42.667 42.667v0h-18.347c-23.564 0-42.667-19.103-42.667-42.667v0-46.933h-64c-23.564 0-42.667-19.103-42.667-42.667v0-597.333c0-23.564 19.103-42.667 42.667-42.667v0h597.333c23.564 0 42.667 19.103 42.667 42.667v0 597.333c0.022 0.509 0.034 1.106 0.034 1.707 0 23.564-19.103 42.667-42.667 42.667-0.012 0-0.024 0-0.036 0h0.002zM789.333 168.107c0-23.564-19.103-42.667-42.667-42.667v0h-469.333c-23.564 0-42.667 19.103-42.667 42.667v0 357.973c0 23.564 19.103 42.667 42.667 42.667v0h469.333c23.564 0 42.667-19.103 42.667-42.667v0zM659.627 391.253h-101.973v101.973c0 12.725-10.315 23.040-23.040 23.040v0h-45.227c-12.725 0-23.040-10.315-23.040-23.040v0-101.973h-101.973c-12.725 0-23.040-10.315-23.040-23.040v0-45.227c0-12.725 10.315-23.040 23.040-23.040v0h101.973v-101.973c0-12.725 10.315-23.040 23.040-23.040v0h45.227c12.725 0 23.040 10.315 23.040 23.040v0 101.973h101.973c12.725 0 23.040 10.315 23.040 23.040v0 45.227c0 12.725-10.315 23.040-23.040 23.040v0z" />
<glyph unicode="&#xe955;" glyph-name="clone" data-tags="clone" d="M807.68 789.333h-454.827c-25.214 0-45.653-20.44-45.653-45.653v0-90.88h-90.88c-25.214 0-45.653-20.44-45.653-45.653v0-454.827c0-25.214 20.44-45.653 45.653-45.653v0h454.827c25.214 0 45.653 20.44 45.653 45.653v0 90.88h90.88c25.214 0 45.653 20.44 45.653 45.653v0 454.827c0 25.214-20.44 45.653-45.653 45.653v0zM625.92 197.547h-364.373v364.373h45.653v-273.067c0-25.214 20.44-45.653 45.653-45.653v0h273.067zM762.453 334.080h-364.373v364.373h364.373z" />
<glyph unicode="&#xe956;" glyph-name="download" data-tags="download" d="M492.373 286.293c4.871-5.504 11.952-8.956 19.84-8.956s14.969 3.452 19.816 8.928l0.024 0.028 229.547 225.28c3.742 4.476 6.014 10.293 6.014 16.64 0 14.374-11.653 26.027-26.027 26.027-0.014 0-0.029 0-0.043 0h-144.211v210.773c0 11.782-9.551 21.333-21.333 21.333v0h-128c-11.782 0-21.333-9.551-21.333-21.333v0-210.347h-144.213c-0.012 0-0.027 0-0.041 0-14.374 0-26.027-11.653-26.027-26.027 0-6.347 2.272-12.164 6.048-16.681l-0.033 0.041zM810.667 323.413h-186.027l-81.067-78.507c-8.741-6.405-19.708-10.248-31.573-10.248s-22.832 3.844-31.725 10.354l0.151-0.106-81.067 78.507h-186.027c-23.564 0-42.667-19.103-42.667-42.667v0-128c0-23.564 19.103-42.667 42.667-42.667v0h597.333c23.564 0 42.667 19.103 42.667 42.667v0 128c0 23.564-19.103 42.667-42.667 42.667v0zM768 181.333c-17.673 0-32 14.327-32 32s14.327 32 32 32c17.673 0 32-14.327 32-32v0c-0.237-17.577-14.423-31.763-31.977-32h-0.023z" />
<glyph unicode="&#xe957;" glyph-name="copy" data-tags="copy" d="M677.12 645.973h90.88c19.627 0 17.92 16.213 17.92 35.84v5.973l-103.253 101.547h-5.973c-19.627 0-35.413 0-35.413-17.493v-90.027c0-19.794 16.046-35.84 35.84-35.84v0zM317.013 215.040v459.52h-42.667c-19.558 0-35.413-15.855-35.413-35.413v0-497.067c0-19.558 15.855-35.413 35.413-35.413v0h354.987c19.558 0 35.413 15.855 35.413 35.413v0 37.547h-311.893c-0.001 0-0.002 0-0.003 0-19.644 0-35.597 15.804-35.837 35.391v0.023zM640 611.84c-19.558 0-35.413 15.855-35.413 35.413v0 142.080h-213.333c-19.558 0-35.413-15.855-35.413-35.413v0-497.067c0-19.558 15.855-35.413 35.413-35.413h354.987c19.558 0 35.413 15.855 35.413 35.413v0 354.987z" />
<glyph unicode="&#xe958;" glyph-name="file" data-tags="file" d="M597.333 576c-23.564 0-42.667 19.103-42.667 42.667v0 170.667h-256c-23.564 0-42.667-19.103-42.667-42.667v0-597.333c0-23.564 19.103-42.667 42.667-42.667v0h426.667c23.564 0 42.667 19.103 42.667 42.667v0 426.667zM640 618.667h106.667c23.467 0 21.333 19.2 21.333 42.667v7.253l-120.747 120.747h-7.253c-23.467 0-42.667 0-42.667-21.333v-106.667c0-23.564 19.103-42.667 42.667-42.667v0z" />
<glyph unicode="&#xe959;" glyph-name="question-circle" data-tags="question-circle" d="M512 789.333c-188.513 0-341.333-152.82-341.333-341.333s152.82-341.333 341.333-341.333c188.513 0 341.333 152.82 341.333 341.333v0c0 188.513-152.82 341.333-341.333 341.333v0zM538.453 255.573c0.027-0.269 0.043-0.581 0.043-0.896 0-5.184-4.203-9.387-9.387-9.387-0.316 0-0.628 0.016-0.935 0.046l0.039-0.003h-47.787c-0.286-0.032-0.617-0.051-0.953-0.051-4.948 0-8.96 4.012-8.96 8.96 0 0.47 0.036 0.931 0.106 1.381l-0.006-0.050v46.507c-0.063 0.4-0.099 0.861-0.099 1.331 0 4.948 4.012 8.96 8.96 8.96 0.336 0 0.667-0.018 0.993-0.054l-0.040 0.004h47.787c0.269 0.027 0.581 0.043 0.896 0.043 5.184 0 9.387-4.203 9.387-9.387 0-0.316-0.016-0.628-0.046-0.935l0.003 0.039zM613.547 477.867c0.008-0.189 0.013-0.41 0.013-0.632 0-4.938-2.33-9.332-5.951-12.142l-0.035-0.026-64-61.867c-3.173-2.679-5.175-6.659-5.175-11.107 0-0.446 0.020-0.887 0.059-1.322l-0.004 0.056v-22.187c0.027-0.269 0.043-0.581 0.043-0.896 0-5.184-4.203-9.387-9.387-9.387-0.316 0-0.628 0.016-0.935 0.046l0.039-0.003h-47.787c-0.286-0.032-0.617-0.051-0.953-0.051-4.948 0-8.96 4.012-8.96 8.96 0 0.47 0.036 0.931 0.106 1.381l-0.006-0.050v42.667c-0.011 0.23-0.018 0.5-0.018 0.772 0 4.514 1.797 8.608 4.715 11.605l-0.004-0.004 69.12 68.267v71.68c0.059 0.552 0.093 1.193 0.093 1.842 0 10.133-8.214 18.347-18.347 18.347-0.785 0-1.558-0.049-2.316-0.145l0.090 0.009h-23.893c-0.816 0.131-1.756 0.207-2.713 0.207-9.897 0-17.92-8.023-17.92-17.92 0-0.825 0.056-1.637 0.164-2.433l-0.010 0.093v-39.68c0.037-0.273 0.057-0.59 0.057-0.911 0-4.006-3.247-7.253-7.253-7.253-0.321 0-0.637 0.021-0.947 0.061l0.037-0.004h-52.48c-5.973 0-8.533 2.987-8.533 8.107v52.053c-0.333 2.478-0.524 5.344-0.524 8.253 0 36.053 29.227 65.28 65.28 65.28 3.043 0 6.038-0.208 8.971-0.611l-0.34 0.038h56.32c2.444 0.322 5.271 0.506 8.14 0.506 36.289 0 65.707-29.418 65.707-65.707 0-2.735-0.167-5.43-0.491-8.077l0.032 0.318z" />
<glyph unicode="&#xe95a;" glyph-name="question" data-tags="question" d="M559.787 789.333c3.951 0.501 8.522 0.786 13.16 0.786 61.031 0 110.507-49.476 110.507-110.507 0-4.638-0.286-9.209-0.84-13.697l0.054 0.537v-168.107c0.036-0.503 0.056-1.089 0.056-1.68 0-7.929-3.665-15.001-9.394-19.615l-0.048-0.038-108.373-104.107c-5.287-4.922-8.583-11.922-8.583-19.692 0-0.577 0.018-1.151 0.054-1.719l-0.004 0.078v-37.547c0.068-0.545 0.108-1.175 0.108-1.814 0-8.483-6.877-15.36-15.36-15.36-0.639 0-1.27 0.039-1.888 0.115l0.074-0.007h-80.213c-0.545-0.068-1.175-0.108-1.814-0.108-8.483 0-15.36 6.877-15.36 15.36 0 0.639 0.039 1.27 0.115 1.888l-0.007-0.074v75.093c-0.012 0.299-0.019 0.651-0.019 1.003 0 7.697 3.287 14.626 8.534 19.46l0.018 0.017 116.053 115.2v117.76c0.101 0.943 0.159 2.038 0.159 3.146 0 17.202-13.945 31.147-31.147 31.147-1.108 0-2.202-0.058-3.281-0.171l0.135 0.011h-42.667c-1.238 0.179-2.668 0.282-4.122 0.282-16.731 0-30.293-13.563-30.293-30.293 0-1.454 0.102-2.883 0.3-4.282l-0.019 0.161v-66.56c0.047-0.406 0.074-0.877 0.074-1.354 0-6.834-5.54-12.373-12.373-12.373-0.477 0-0.948 0.027-1.411 0.080l0.057-0.005h-87.040c-0.406-0.047-0.877-0.074-1.354-0.074-6.834 0-12.373 5.54-12.373 12.373 0 0.477 0.027 0.948 0.080 1.411l-0.005-0.057v90.453c-0.541 4.099-0.85 8.838-0.85 13.65 0 60.796 49.284 110.080 110.080 110.080 4.811 0 9.551-0.309 14.199-0.907l-0.55 0.058zM442.027 202.24c-0.068 0.545-0.108 1.175-0.108 1.814 0 8.483 6.877 15.36 15.36 15.36 0.639 0 1.27-0.039 1.888-0.115l-0.074 0.007h80.213c0.545 0.068 1.175 0.108 1.814 0.108 8.483 0 15.36-6.877 15.36-15.36 0-0.639-0.039-1.27-0.115-1.888l0.007 0.074v-78.507c0.068-0.545 0.108-1.175 0.108-1.814 0-8.483-6.877-15.36-15.36-15.36-0.639 0-1.27 0.039-1.888 0.115l0.074-0.007h-80.213c-0.545-0.068-1.175-0.108-1.814-0.108-8.483 0-15.36 6.877-15.36 15.36 0 0.639 0.039 1.27 0.115 1.888l-0.007-0.074z" />
<glyph unicode="&#xe95b;" glyph-name="save" data-tags="save" d="M838.827 576l-198.827 198.827c-8.976 8.92-21.33 14.451-34.976 14.507h-377.611c-31.243-0.24-56.507-25.503-56.747-56.724v-569.196c0.24-31.243 25.503-56.507 56.724-56.747h569.196c31.243 0.24 56.507 25.503 56.747 56.724v377.623c-0.056 13.656-5.586 26.010-14.509 34.989l0.003-0.003zM512 192c-47.128 0-85.333 38.205-85.333 85.333s38.205 85.333 85.333 85.333c47.128 0 85.333-38.205 85.333-85.333v0c0-47.128-38.205-85.333-85.333-85.333v0zM597.333 576c0-23.564-19.103-42.667-42.667-42.667v0h-256c-23.564 0-42.667 19.103-42.667 42.667v0 85.333c0 23.564 19.103 42.667 42.667 42.667v0h256c23.564 0 42.667-19.103 42.667-42.667v0z" />
<glyph unicode="&#xe95c;" glyph-name="power-off" data-tags="power-off" d="M810.667 613.12c-30.528 54.639-73.991 98.786-126.385 129.266l-1.615 0.867c-5.567 3.162-12.23 5.025-19.328 5.025-14.658 0-27.46-7.948-34.33-19.769l-0.102-0.19c-3.881-5.942-6.19-13.217-6.19-21.032 0-13.414 6.802-25.239 17.145-32.214l0.138-0.088c80.778-45.773 134.4-131.156 134.4-229.063 0-144.92-117.48-262.4-262.4-262.4s-262.4 117.48-262.4 262.4c0 97.907 53.622 183.29 133.099 228.384l1.301 0.679c12.052 6.906 20.040 19.693 20.040 34.347 0 21.79-17.664 39.453-39.453 39.453-7.136 0-13.83-1.895-19.606-5.208l0.192 0.102c-104.428-59.707-173.667-170.425-173.667-297.316 0-188.513 152.82-341.333 341.333-341.333s341.333 152.82 341.333 341.333c0 61.256-16.136 118.743-44.389 168.443l0.883-1.687zM512 387.84c22.15 0 40.107 17.956 40.107 40.107v0 321.28c0 22.15-17.956 40.107-40.107 40.107s-40.107-17.956-40.107-40.107v0-321.28c0-22.15 17.956-40.107 40.107-40.107v0z" />
<glyph unicode="&#xe95d;" glyph-name="tags" data-tags="tags" d="M906.24 451.84l-293.547 294.827c-7.733 7.795-18.45 12.621-30.293 12.621s-22.56-4.826-30.291-12.618l-0.003-0.003-29.867-30.293 264.533-264.533c7.418-7.666 11.989-18.126 11.989-29.653s-4.571-21.987-12-29.665l0.011 0.012-211.2-211.2 30.293-30.293c7.733-7.795 18.45-12.621 30.293-12.621s22.56 4.826 30.291 12.618l0.003 0.003 241.067 241.493c7.042 7.587 11.363 17.784 11.363 28.992 0 11.854-4.834 22.58-12.639 30.312l-0.003 0.003zM725.333 444.587l-306.773 308.48c-7.173 7.136-17.063 11.547-27.983 11.547-0.513 0-1.023-0.010-1.531-0.029l0.073 0.002-237.227-4.267c-23.564 0-42.667-19.103-42.667-42.667v0l-4.267-237.227c-0.013-0.384-0.021-0.835-0.021-1.288 0-10.972 4.406-20.915 11.545-28.157l-0.005 0.005 310.187-308.053c7.666-7.418 18.126-11.989 29.653-11.989s21.987 4.571 29.665 12l-0.012-0.011 239.36 242.773c7.295 7.642 11.784 18.017 11.784 29.44s-4.489 21.798-11.8 29.457l0.016-0.017zM288 581.547c-11.716-12.548-28.356-20.37-46.823-20.37-35.346 0-64 28.654-64 64 0 18.467 7.822 35.107 20.333 46.789l0.037 0.034c11.398 10.643 26.751 17.177 43.63 17.177 35.346 0 64-28.654 64-64 0-16.879-6.534-32.232-17.211-43.667l0.034 0.037z" />
<glyph unicode="&#xe95e;" glyph-name="tag" data-tags="tag" d="M479.573 764.587l-237.227-4.267c-23.564 0-42.667-19.103-42.667-42.667v0l-4.267-237.227c-0.013-0.384-0.021-0.835-0.021-1.288 0-10.972 4.406-20.915 11.545-28.157l-0.005 0.005 308.48-308.053c7.642-7.295 18.017-11.784 29.44-11.784s21.798 4.489 29.457 11.8l-0.017-0.016 241.493 241.493c7.295 7.642 11.784 18.017 11.784 29.44s-4.489 21.798-11.8 29.457l0.016-0.017-306.773 309.76c-7.237 7.135-17.18 11.541-28.152 11.541-0.453 0-0.904-0.008-1.354-0.022l0.065 0.002zM378.453 581.547c-11.625-11.463-27.599-18.543-45.227-18.543s-33.602 7.079-45.234 18.55l0.007-0.007c-10.643 11.398-17.177 26.751-17.177 43.63 0 35.346 28.654 64 64 64 16.879 0 32.232-6.534 43.667-17.211l-0.037 0.034c11.463-11.625 18.543-27.599 18.543-45.227s-7.079-33.602-18.55-45.234l0.007 0.007z" />
<glyph unicode="&#xe95f;" glyph-name="lock" data-tags="lock" d="M768 490.667h-42.667v85.333c0 117.821-95.513 213.333-213.333 213.333s-213.333-95.513-213.333-213.333v0-85.333h-42.667c-23.564 0-42.667-19.103-42.667-42.667v0-298.667c0-23.564 19.103-42.667 42.667-42.667v0h512c23.564 0 42.667 19.103 42.667 42.667v0 298.667c0 23.564-19.103 42.667-42.667 42.667v0zM384 576c0 70.692 57.308 128 128 128s128-57.308 128-128v0-85.333h-256z" />
<glyph unicode="&#xe960;" glyph-name="unlock" data-tags="unlock" d="M768 448h-384v128c0 70.692 57.308 128 128 128s128-57.308 128-128v0c0-23.564 19.103-42.667 42.667-42.667s42.667 19.103 42.667 42.667v0c0 117.821-95.513 213.333-213.333 213.333s-213.333-95.513-213.333-213.333v0-128h-42.667c-23.564 0-42.667-19.103-42.667-42.667v0-256c0-23.564 19.103-42.667 42.667-42.667v0h512c23.564 0 42.667 19.103 42.667 42.667v0 256c0 23.564-19.103 42.667-42.667 42.667v0z" />
<glyph unicode="&#xe961;" glyph-name="inbox" data-tags="inbox" d="M847.787 455.253l-165.12 216.747s-19.2 32-42.667 32h-256c-23.467 0-42.667-32-42.667-32l-165.12-216.747c-3.324-4.343-5.383-9.809-5.546-15.749l-0.001-0.037v-215.467c0-17.493 19.2-32 42.667-32h597.333c23.467 0 42.667 14.507 42.667 32v215.467c-0.163 5.977-2.223 11.444-5.595 15.852l0.048-0.066zM597.333 469.333l-42.667-64h-85.333l-42.667 64h-128l117.333 170.667h192l117.333-170.667z" />
<glyph unicode="&#xe962;" glyph-name="video" data-tags="video" d="M192 704h426.667c23.564 0 42.667-19.103 42.667-42.667v-426.667c0-23.564-19.103-42.667-42.667-42.667h-426.667c-23.564 0-42.667 19.103-42.667 42.667v426.667c0 23.564 19.103 42.667 42.667 42.667zM840.533 618.667l-136.533-85.333v-170.667l136.533-85.333c19.448 2.539 34.311 19.004 34.311 38.941 0 1.312-0.064 2.609-0.19 3.888l0.013-0.162v256c0.113 1.117 0.177 2.414 0.177 3.726 0 19.937-14.863 36.402-34.112 38.92l-0.198 0.021z" />
<glyph unicode="&#xe963;" glyph-name="folder" data-tags="folder" d="M810.667 192h-597.333c-0.807-0.058-1.749-0.091-2.698-0.091-20.981 0-38.199 16.11-39.959 36.635l-0.010 0.149v439.467c1.733 20.234 18.584 36.001 39.118 36.001 1.249 0 2.485-0.058 3.704-0.172l-0.156 0.012h256l85.333-72.96h256c0.807 0.058 1.749 0.091 2.698 0.091 20.981 0 38.199-16.11 39.959-36.635l0.010-0.149v-365.653c-1.77-20.674-18.988-36.784-39.969-36.784-0.949 0-1.891 0.033-2.824 0.098l0.126-0.007z" />
<glyph unicode="&#xe964;" glyph-name="folder-open" data-tags="folder-open" d="M313.6 490.667h539.733v103.68c-1.77 20.674-18.988 36.784-39.969 36.784-0.949 0-1.891-0.033-2.824-0.098l0.126 0.007h-256l-85.333 72.96h-256c-1.063 0.102-2.299 0.161-3.548 0.161-20.534 0-37.386-15.767-39.108-35.855l-0.010-0.146v-439.467c-0.092-0.705-0.144-1.52-0.144-2.347s0.052-1.642 0.154-2.442l-0.010 0.095 100.267 238.933c7.147 16.446 23.251 27.738 41.991 27.738 0.237 0 0.474-0.002 0.711-0.005h-0.036zM865.28 426.667h-505.173c-0.313 0.010-0.68 0.015-1.049 0.015-14.293 0-26.654-8.268-32.563-20.282l-0.095-0.213-78.080-164.267c-1.483-3.855-2.342-8.316-2.342-12.977 0-20.501 16.619-37.12 37.12-37.12 1.276 0 2.536 0.064 3.779 0.19l-0.156-0.013h501.76c0.287-0.007 0.625-0.011 0.964-0.011 16.058 0 30.044 8.871 37.325 21.98l0.111 0.218 76.8 162.56c1.483 3.855 2.342 8.316 2.342 12.977 0 20.501-16.619 37.12-37.12 37.12-1.276 0-2.536-0.064-3.779-0.19l0.156 0.013z" />
<glyph unicode="&#xe965;" glyph-name="eye-slash" data-tags="eye-slash" d="M606.293 398.933c-5.293-9.624-11.531-17.902-18.777-25.177l0.004 0.004-3.84-3.413c-6.185-5.883-13.196-10.988-20.818-15.105l-0.516-0.255c-14.435-8.517-31.792-13.578-50.325-13.653h-0.022c-58.91 0-106.667 47.756-106.667 106.667v0c0.075 18.555 5.136 35.911 13.911 50.82l-0.258-0.473c4.372 8.138 9.477 15.148 15.399 21.374l-0.039-0.041 3.413 3.84c7.271 7.242 15.549 13.481 24.605 18.485l0.568 0.288-147.2 147.2c-5.699 5.321-13.376 8.588-21.815 8.588-17.673 0-32-14.327-32-32 0-8.44 3.267-16.116 8.606-21.834l-0.017 0.019 50.773-50.773c-58.050-41.252-107.742-89.316-149.403-143.842l-1.211-1.651s152.747-213.333 341.333-213.333c49.114 0.907 95.104 13.43 135.605 34.923l-1.632-0.79 62.293-62.293c5.858-6.274 14.178-10.185 23.412-10.185 17.673 0 32 14.327 32 32 0 9.234-3.911 17.554-10.166 23.394l-0.019 0.017zM512 661.333c-19.611-0.202-38.574-2.523-56.809-6.745l1.769 0.345 305.493-305.493c33.184 29.834 62.99 62.076 89.635 96.867l1.245 1.693s-152.747 213.333-341.333 213.333z" />
<glyph unicode="&#xe966;" glyph-name="eye" data-tags="eye" d="M512 661.333c-188.587 0-341.333-213.333-341.333-213.333s152.747-213.333 341.333-213.333 341.333 213.333 341.333 213.333-152.747 213.333-341.333 213.333zM512 341.333c-58.91 0-106.667 47.756-106.667 106.667s47.756 106.667 106.667 106.667c58.91 0 106.667-47.756 106.667-106.667v0c0-58.91-47.756-106.667-106.667-106.667v0z" />
<glyph unicode="&#xe967;" glyph-name="list" data-tags="list" d="M213.333 512h42.667c23.564 0 42.667-19.103 42.667-42.667v-42.667c0-23.564-19.103-42.667-42.667-42.667h-42.667c-23.564 0-42.667 19.103-42.667 42.667v42.667c0 23.564 19.103 42.667 42.667 42.667zM384 512h426.667c23.564 0 42.667-19.103 42.667-42.667v-42.667c0-23.564-19.103-42.667-42.667-42.667h-426.667c-23.564 0-42.667 19.103-42.667 42.667v42.667c0 23.564 19.103 42.667 42.667 42.667zM213.333 746.667h42.667c23.564 0 42.667-19.103 42.667-42.667v-42.667c0-23.564-19.103-42.667-42.667-42.667h-42.667c-23.564 0-42.667 19.103-42.667 42.667v42.667c0 23.564 19.103 42.667 42.667 42.667zM384 746.667h426.667c23.564 0 42.667-19.103 42.667-42.667v-42.667c0-23.564-19.103-42.667-42.667-42.667h-426.667c-23.564 0-42.667 19.103-42.667 42.667v42.667c0 23.564 19.103 42.667 42.667 42.667zM213.333 277.333h42.667c23.564 0 42.667-19.103 42.667-42.667v-42.667c0-23.564-19.103-42.667-42.667-42.667h-42.667c-23.564 0-42.667 19.103-42.667 42.667v42.667c0 23.564 19.103 42.667 42.667 42.667zM384 277.333h426.667c23.564 0 42.667-19.103 42.667-42.667v-42.667c0-23.564-19.103-42.667-42.667-42.667h-426.667c-23.564 0-42.667 19.103-42.667 42.667v42.667c0 23.564 19.103 42.667 42.667 42.667z" />
<glyph unicode="&#xe968;" glyph-name="map-marker" data-tags="map-marker" d="M789.333 513.28c0-107.52-122.027-235.093-262.4-399.787-3.687-4.101-9.010-6.669-14.933-6.669s-11.246 2.568-14.917 6.651l-0.016 0.018c-140.8 163.84-262.4 291.84-262.4 399.787 0 153.167 124.166 277.333 277.333 277.333s277.333-124.166 277.333-277.333v0z" />
<glyph unicode="&#xe969;" glyph-name="table" data-tags="table" d="M810.667 704h-597.333c-23.564 0-42.667-19.103-42.667-42.667v0-426.667c0-23.564 19.103-42.667 42.667-42.667v0h597.333c23.564 0 42.667 19.103 42.667 42.667v0 426.667c0 23.564-19.103 42.667-42.667 42.667v0zM469.333 277.333c0-11.782-9.551-21.333-21.333-21.333v0h-170.667c-11.782 0-21.333 9.551-21.333 21.333v0 85.333c0 11.782 9.551 21.333 21.333 21.333v0h170.667c11.782 0 21.333-9.551 21.333-21.333v0zM469.333 490.667c0-11.782-9.551-21.333-21.333-21.333v0h-170.667c-11.782 0-21.333 9.551-21.333 21.333v0 85.333c0 11.782 9.551 21.333 21.333 21.333v0h170.667c11.782 0 21.333-9.551 21.333-21.333v0zM768 277.333c0-11.782-9.551-21.333-21.333-21.333v0h-170.667c-11.782 0-21.333 9.551-21.333 21.333v0 85.333c0 11.782 9.551 21.333 21.333 21.333v0h170.667c11.782 0 21.333-9.551 21.333-21.333v0zM768 490.667c0-11.782-9.551-21.333-21.333-21.333v0h-170.667c-11.782 0-21.333 9.551-21.333 21.333v0 85.333c0 11.782 9.551 21.333 21.333 21.333v0h170.667c11.782 0 21.333-9.551 21.333-21.333v0z" />
<glyph unicode="&#xe96a;" glyph-name="lock-open" data-tags="lock-open" d="M680.107 789.333c-117.821 0-213.333-95.513-213.333-213.333v0-128h-293.547c-23.564 0-42.667-19.103-42.667-42.667v0-256c0-23.564 19.103-42.667 42.667-42.667v0h512c23.564 0 42.667 19.103 42.667 42.667v0 256c0 23.564-19.103 42.667-42.667 42.667v0h-133.12v128c0 70.692 57.308 128 128 128s128-57.308 128-128v0-128c0-23.564 19.103-42.667 42.667-42.667s42.667 19.103 42.667 42.667v0 128c0 117.821-95.513 213.333-213.333 213.333v0z" />
<glyph unicode="&#xe96b;" glyph-name="dollar" data-tags="dollar" d="M580.267 544.427c-8.533 0-13.653 4.267-13.653 11.52v55.893c0 18.773-11.093 28.587-34.133 28.587h-42.667c-21.333 0-34.133-9.813-34.133-28.587v-98.987l203.093-56.32c14.507-5.12 22.187-12.8 22.187-26.453v-165.973c0-65.28-40.107-101.547-116.053-103.68v-85.333c0-7.253-5.12-11.52-13.653-11.52h-81.92c-9.387 0-13.653 4.267-13.653 11.52v85.333c-71.68 2.133-114.347 38.4-114.347 103.68v75.52c0 7.68 5.12 11.52 13.653 11.52h88.747c9.387 0 13.653-3.84 13.653-11.52v-55.467c0-19.2 12.8-28.587 34.133-28.587h42.667c22.187 0 34.133 9.387 34.133 28.587v95.573l-203.947 55.893c-13.102 1.944-23.041 13.113-23.041 26.605 0 0.097 0.001 0.194 0.002 0.29v-0.015 170.667c0 65.28 42.667 101.547 115.2 103.68v85.333c0 7.253 4.267 11.52 13.653 11.52h84.48c8.533 0 13.653-4.267 13.653-11.52v-85.333c75.947 0 116.053-38.4 116.053-103.68v-77.227c0-7.253-4.267-11.52-13.653-11.52z" />
<glyph unicode="&#xe96c;" glyph-name="camera" data-tags="camera" d="M810.667 614.4h-85.333l-30.293 89.6c-7.737 11.685-20.826 19.286-35.69 19.286-0.953 0-1.899-0.031-2.837-0.093l0.127 0.007h-288.853c-0.769 0.049-1.667 0.078-2.572 0.078-14.68 0-27.629-7.414-35.306-18.702l-0.095-0.148-31.147-90.027h-85.333c-1.117 0.113-2.414 0.177-3.726 0.177-19.937 0-36.402-14.863-38.92-34.112l-0.021-0.198v-375.467c2.539-19.448 19.004-34.311 38.941-34.311 1.312 0 2.609 0.064 3.888 0.19l-0.162-0.013h597.333c1.117-0.113 2.414-0.177 3.726-0.177 19.937 0 36.402 14.863 38.92 34.112l0.021 0.198v375.467c-2.539 19.448-19.004 34.311-38.941 34.311-1.312 0-2.609-0.064-3.888-0.19l0.162 0.013zM512 277.333c-70.692 0-128 57.308-128 128s57.308 128 128 128c70.692 0 128-57.308 128-128v0c0-70.692-57.308-128-128-128v0zM597.333 405.333c0-47.128-38.205-85.333-85.333-85.333s-85.333 38.205-85.333 85.333c0 47.128 38.205 85.333 85.333 85.333s85.333-38.205 85.333-85.333z" />
<glyph unicode="&#xe96d;" glyph-name="chart-bar" data-tags="chart-bar" d="M832 277.333h-576v405.333c0 11.782-9.551 21.333-21.333 21.333v0h-42.667c-11.782 0-21.333-9.551-21.333-21.333v0-469.333c0-11.782 9.551-21.333 21.333-21.333v0h640c11.782 0 21.333 9.551 21.333 21.333v0 42.667c0 11.782-9.551 21.333-21.333 21.333v0zM361.813 533.333h42.667c11.782 0 21.333-9.551 21.333-21.333v-128c0-11.782-9.551-21.333-21.333-21.333h-42.667c-11.782 0-21.333 9.551-21.333 21.333v128c0 11.782 9.551 21.333 21.333 21.333zM490.667 618.667h42.667c11.782 0 21.333-9.551 21.333-21.333v-213.333c0-11.782-9.551-21.333-21.333-21.333h-42.667c-11.782 0-21.333 9.551-21.333 21.333v213.333c0 11.782 9.551 21.333 21.333 21.333zM618.667 576h42.667c11.782 0 21.333-9.551 21.333-21.333v-170.667c0-11.782-9.551-21.333-21.333-21.333h-42.667c-11.782 0-21.333 9.551-21.333 21.333v170.667c0 11.782 9.551 21.333 21.333 21.333zM746.667 661.333h42.667c11.782 0 21.333-9.551 21.333-21.333v-256c0-11.782-9.551-21.333-21.333-21.333h-42.667c-11.782 0-21.333 9.551-21.333 21.333v256c0 11.782 9.551 21.333 21.333 21.333z" />
<glyph unicode="&#xe96e;" glyph-name="sitemap" data-tags="sitemap" d="M469.333 362.667h85.333c23.564 0 42.667-19.103 42.667-42.667v-85.333c0-23.564-19.103-42.667-42.667-42.667h-85.333c-23.564 0-42.667 19.103-42.667 42.667v85.333c0 23.564 19.103 42.667 42.667 42.667zM213.333 362.667h85.333c23.564 0 42.667-19.103 42.667-42.667v-85.333c0-23.564-19.103-42.667-42.667-42.667h-85.333c-23.564 0-42.667 19.103-42.667 42.667v85.333c0 23.564 19.103 42.667 42.667 42.667zM725.333 362.667h85.333c23.564 0 42.667-19.103 42.667-42.667v-85.333c0-23.564-19.103-42.667-42.667-42.667h-85.333c-23.564 0-42.667 19.103-42.667 42.667v85.333c0 23.564 19.103 42.667 42.667 42.667zM277.333 426.667c0 11.782 9.551 21.333 21.333 21.333v0h192v-42.667h42.667v42.667h192c11.782 0 21.333-9.551 21.333-21.333v0-21.333h42.667v21.333c0 35.346-28.654 64-64 64v0h-192v42.667h32c23.564 0 42.667 19.103 42.667 42.667v0 85.333c0 23.564-19.103 42.667-42.667 42.667v0h-106.667c-23.564 0-42.667-19.103-42.667-42.667v0-85.333c0-23.564 19.103-42.667 42.667-42.667v0h32v-42.667h-192c-35.346 0-64-28.654-64-64v0-21.333h42.667z" />
<glyph unicode="&#xe96f;" glyph-name="wifi" data-tags="wifi" d="M871.68 533.333c-87.068 102.859-215.499 168.373-359.289 170.662l-0.391 0.005c-144.181-2.293-272.612-67.808-359.101-169.965l-0.579-0.702c-3.324-3.744-5.355-8.703-5.355-14.135 0-6.68 3.070-12.642 7.876-16.554l0.039-0.031 32.853-27.307c3.627-2.942 8.299-4.723 13.387-4.723 6.389 0 12.123 2.809 16.032 7.259l0.021 0.024c71.42 84.402 176.587 138.33 294.408 140.793l0.419 0.007c118.056-2.128 223.21-55.602 294.369-138.97l0.458-0.55c3.93-4.474 9.664-7.283 16.053-7.283 5.088 0 9.76 1.781 13.427 4.754l-0.040-0.031 32.853 27.307c4.474 3.93 7.283 9.664 7.283 16.053 0 5.088-1.781 9.76-4.754 13.427l0.031-0.040zM597.333 277.333c0-47.128-38.205-85.333-85.333-85.333s-85.333 38.205-85.333 85.333c0 47.128 38.205 85.333 85.333 85.333s85.333-38.205 85.333-85.333zM512 533.333c-92.074-0.973-174.524-41.37-231.411-105.080l-0.269-0.307c-3.324-3.744-5.355-8.703-5.355-14.135 0-6.68 3.070-12.642 7.876-16.554l0.039-0.031 33.28-27.733c3.505-2.893 8.043-4.647 12.99-4.647 6.234 0 11.817 2.785 15.573 7.179l0.023 0.028c41.571 45.756 100.912 74.727 167.037 75.944l0.217 0.003c66.341-1.22 125.683-30.19 167.083-75.757l0.17-0.19c3.78-4.422 9.363-7.207 15.597-7.207 4.947 0 9.485 1.754 13.025 4.675l-0.035-0.028 33.28 27.733c4.845 3.942 7.915 9.905 7.915 16.585 0 5.432-2.031 10.391-5.374 14.157l0.019-0.022c-57.157 64.017-139.606 104.413-231.508 105.385l-0.172 0.001z" />
<glyph unicode="&#xe970;" glyph-name="sign-in" data-tags="sign-in" d="M673.707 468.053l-226.56 229.547c-4.432 3.468-10.085 5.561-16.227 5.561-14.315 0-25.974-11.37-26.439-25.572l-0.001-0.043v-144.213h-213.333c-11.782 0-21.333-9.551-21.333-21.333v0-128c0-11.782 9.551-21.333 21.333-21.333v0h213.333v-144.213c0.466-14.244 12.125-25.615 26.44-25.615 6.142 0 11.795 2.093 16.285 5.605l-0.058-0.044 226.56 229.973c5.504 4.871 8.956 11.952 8.956 19.84s-3.452 14.969-8.928 19.816l-0.028 0.024zM574.293 661.333h108.373c12.028-0.024 23.465-2.533 33.831-7.040l-0.551 0.213c5.601-2.387 10.367-4.957 14.866-7.901l-0.36 0.221c8.972-6.446 16.594-14.068 22.84-22.747l0.2-0.293c9.007-13.45 14.411-29.978 14.507-47.762v-256.025c-0.096-17.809-5.499-34.336-14.706-48.104l0.2 0.317c-6.446-8.972-14.068-16.594-22.747-22.84l-0.293-0.2c-4.139-2.723-8.906-5.293-13.895-7.445l-0.612-0.235c-9.815-4.294-21.252-6.803-33.271-6.827h-108.382c-10.744-0.233-19.393-8.882-19.626-19.605v-46.102c0.233-10.744 8.882-19.393 19.605-19.626h88.769c105.096 0 190.293 85.197 190.293 190.293v0 216.747c0 105.096-85.197 190.293-190.293 190.293v0h-88.747c-10.744-0.233-19.393-8.882-19.626-19.605v-46.102c0.233-10.744 8.882-19.393 19.605-19.626h0.022z" />
<glyph unicode="&#xe971;" glyph-name="sign-out" data-tags="sign-out" d="M844.373 468.053l-226.56 229.547c-4.432 3.468-10.085 5.561-16.227 5.561-14.315 0-25.974-11.37-26.439-25.572l-0.001-0.043v-144.213h-213.333c-11.782 0-21.333-9.551-21.333-21.333v0-128c0-11.782 9.551-21.333 21.333-21.333v0h213.333v-144.213c0.466-14.244 12.125-25.615 26.44-25.615 6.142 0 11.795 2.093 16.285 5.605l-0.058-0.044 226.56 229.973c5.504 4.871 8.956 11.952 8.956 19.84s-3.452 14.969-8.928 19.816l-0.028 0.024zM449.707 234.667h-108.373c-12.028 0.024-23.465 2.533-33.831 7.040l0.551-0.213c-5.601 2.387-10.367 4.957-14.866 7.901l0.36-0.221c-8.972 6.446-16.594 14.068-22.84 22.747l-0.2 0.293c-9.007 13.45-14.411 29.978-14.507 47.762v256.025c0.096 17.809 5.499 34.336 14.706 48.104l-0.2-0.317c6.446 8.972 14.068 16.594 22.747 22.84l0.293 0.2c4.139 2.723 8.906 5.293 13.895 7.445l0.612 0.235c9.815 4.294 21.252 6.803 33.271 6.827h108.382c10.744 0.233 19.393 8.882 19.626 19.605v46.102c-0.233 10.744-8.882 19.393-19.605 19.626h-88.769c-105.096 0-190.293-85.197-190.293-190.293v0-216.747c0-105.096 85.197-190.293 190.293-190.293v0h88.747c10.744 0.233 19.393 8.882 19.626 19.605v46.102c-0.233 10.744-8.882 19.393-19.605 19.626h-0.022z" />
<glyph unicode="&#xe972;" glyph-name="image" data-tags="image" d="M810.667 704h-597.333c-23.564 0-42.667-19.103-42.667-42.667v0-426.667c0-23.564 19.103-42.667 42.667-42.667v0h597.333c23.564 0 42.667 19.103 42.667 42.667v0 426.667c0 23.564-19.103 42.667-42.667 42.667v0zM341.333 618.667c47.128 0 85.333-38.205 85.333-85.333s-38.205-85.333-85.333-85.333c-47.128 0-85.333 38.205-85.333 85.333v0c0 47.128 38.205 85.333 85.333 85.333v0zM768 362.667v-85.333h-512v85.333l72.96 36.693c3.612 1.807 7.869 2.864 12.373 2.864s8.761-1.057 12.537-2.938l-0.163 0.074 72.96-36.693 201.813 161.28c3.314 2.404 7.462 3.845 11.947 3.845s8.633-1.442 12.006-3.887l-0.060 0.041 115.627-75.947z" />
<glyph unicode="&#xe973;" glyph-name="images" data-tags="images" d="M209.92 256v384h-42.667c-23.564 0-42.667-19.103-42.667-42.667v0-426.667c0-23.564 19.103-42.667 42.667-42.667v0h597.333c23.564 0 42.667 19.103 42.667 42.667v0 42.667h-554.667c-23.564 0-42.667 19.103-42.667 42.667v0zM860.587 746.667h-547.84c-21.495-0.241-38.827-17.722-38.827-39.251 0-0.001 0-0.002 0-0.002v0-390.827c0-0.001 0-0.001 0-0.002 0-21.529 17.332-39.010 38.804-39.251h547.863c21.495 0.241 38.827 17.722 38.827 39.251 0 0.001 0 0.002 0 0.002v0 390.827c0 0.001 0 0.001 0 0.002 0 21.529-17.332 39.010-38.804 39.251h-0.023zM430.080 668.587c0.127 0.001 0.277 0.001 0.427 0.001 43.358 0 78.507-35.149 78.507-78.507s-35.149-78.507-78.507-78.507c-43.358 0-78.506 35.148-78.507 78.505v0c0 0 0 0.001 0 0.001 0 43.208 34.906 78.263 78.057 78.505h0.023zM821.333 433.92v-78.507h-469.333v78.507l66.987 33.28c3.31 1.602 7.199 2.538 11.307 2.538s7.997-0.936 11.465-2.607l-0.158 0.069 66.987-33.28 184.747 147.627c3.023 2.172 6.8 3.474 10.88 3.474s7.857-1.302 10.936-3.513l-0.056 0.038 106.24-70.827z" />
</font>
</defs>
</svg>
