<?xml version="1.0" standalone="no"?>
<!DOCTYPE svg PUBLIC "-//W3C//DTD SVG 1.1//EN" "http://www.w3.org/Graphics/SVG/1.1/DTD/svg11.dtd" >
<svg xmlns="http://www.w3.org/2000/svg" xmlns:xlink="http://www.w3.org/1999/xlink" version="1.1">
<metadata></metadata>
<defs>
<font id="roboto_monomedium" horiz-adv-x="1229" >
<font-face units-per-em="2048" ascent="1536" descent="-512" />
<missing-glyph horiz-adv-x="500" />
<glyph horiz-adv-x="0" />
<glyph horiz-adv-x="0" />
<glyph />
<glyph unicode="&#x9;" />
<glyph unicode=" " />
<glyph unicode="!" d="M716 493h-226l-8 963h242zM463 119q0 58 36.5 96.5t104.5 38.5t105 -38.5t37 -96.5q0 -57 -37 -94.5t-105 -37.5t-104.5 37.5t-36.5 94.5z" />
<glyph unicode="&#x22;" d="M495 1429l-25 -399h-158v506h183v-107zM886 1429l-25 -399h-158v506h183v-107z" />
<glyph unicode="#" d="M675 410h-227l-76 -410h-166l77 410h-232v157h261l59 314h-245v159h275l78 416h165l-78 -416h227l78 416h167l-78 -416h207v-159h-237l-59 -314h220v-157h-249l-77 -410h-166zM478 567h227l58 314h-227z" />
<glyph unicode="$" d="M879 380q0 42 -13.5 77t-43.5 64.5t-78 55t-117 48.5q-98 32 -177 71.5t-135 92t-86 122t-30 162.5q0 84 27 153.5t76.5 121t120 83.5t157.5 42v218h160v-220q87 -12 155.5 -48.5t116.5 -95.5t73.5 -140t25.5 -182h-239q0 63 -15 113.5t-43 86t-68.5 54.5t-92.5 19 q-56 0 -96.5 -15t-66.5 -41.5t-39 -64t-13 -82.5q0 -43 12.5 -77t42.5 -63t79 -54.5t122 -50.5q99 -34 177.5 -73.5t133.5 -92t84 -121.5t29 -161q0 -88 -28 -157.5t-80 -120t-126 -81t-165 -39.5v-194h-159v193q-81 8 -156 37t-133 83.5t-93 138t-35 200.5h239 q0 -78 22.5 -129t58.5 -81.5t81 -43t91 -12.5q118 0 181 55.5t63 148.5z" />
<glyph unicode="%" d="M39 1196q0 58 17.5 109t52.5 89t87 60.5t121 22.5t121.5 -22.5t87 -60.5t52 -89t17.5 -109v-77q0 -57 -17.5 -107.5t-52 -89t-86.5 -60.5t-120 -22q-69 0 -121.5 22t-87.5 60.5t-53 89t-18 107.5v77zM207 1119q0 -27 6 -51.5t19.5 -43t34.5 -30t52 -11.5q30 0 51 11.5 t33.5 30t18.5 43t6 51.5v77q0 27 -6 51.5t-19 43t-34 30t-52 11.5q-30 0 -51 -11.5t-34 -30t-19 -43t-6 -51.5v-77zM631 337q0 57 17.5 108t52.5 89.5t87 60.5t121 22t121.5 -22t87 -60.5t52 -89.5t17.5 -108v-78q0 -57 -17.5 -108t-52 -89t-86 -60t-120.5 -22t-121.5 22 t-88 60t-53 89t-17.5 108v78zM799 259q0 -27 6 -51.5t19.5 -43t35 -30t51.5 -11.5q32 0 53 11t33 30t17 43.5t5 51.5v78q0 26 -6 50.5t-19 43t-34 30t-51 11.5q-31 0 -52 -11.5t-34 -30t-18.5 -43t-5.5 -50.5v-78zM411 196l-127 64l561 1028l127 -64z" />
<glyph unicode="&#x26;" d="M88 373q0 67 19 122.5t53.5 103.5t83.5 91t109 85q-63 90 -98.5 170t-35.5 166q0 87 26.5 155t76 115t119.5 71.5t156 24.5q74 0 134.5 -26.5t103 -71t65.5 -103.5t23 -124q0 -52 -16 -96.5t-44 -83.5t-66 -73.5t-82 -66.5l-85 -71l271 -352q32 60 50.5 131t18.5 152h209 q0 -134 -36.5 -247.5t-111.5 -204.5l185 -240h-279l-70 92q-75 -55 -159.5 -84t-184.5 -29q-101 0 -181.5 29.5t-137 82t-86.5 124.5t-30 158zM529 170q60 0 117 19t108 54l-288 381l-16 -13q-41 -35 -65.5 -68.5t-37 -63.5t-16.5 -55t-4 -43q0 -44 13.5 -82.5t39 -67 t63 -45t86.5 -16.5zM445 1112q0 -49 21 -100t59 -108l103 80q31 21 48.5 42.5t25.5 42.5t10 40.5t2 34.5q0 26 -8 51.5t-23 45t-37 31.5t-49 12q-38 0 -66.5 -14t-47.5 -37.5t-28.5 -54.5t-9.5 -66z" />
<glyph unicode="'" d="M665 1412l-25 -390h-167v514h192v-124z" />
<glyph unicode="(" d="M348 592q0 145 23 271t61 233t88.5 194.5t106 155t112 114t107.5 72.5l48 -141q-57 -44 -115 -119t-105 -185t-76.5 -257.5t-29.5 -335.5v-20q0 -188 29.5 -335.5t76.5 -258.5t105 -187t115 -122l-48 -134q-51 25 -107.5 72t-112 114.5t-106 154.5t-88.5 194t-61 233 t-23 271v16z" />
<glyph unicode=")" d="M868 576q0 -143 -23 -268.5t-62 -232t-90 -194.5t-107.5 -156t-114 -115.5t-108.5 -72.5l-47 134q56 43 114 119t105 187.5t77 260t30 336.5v20q0 188 -31.5 336.5t-79.5 260.5t-105.5 188t-109.5 119l47 134q51 -26 108.5 -73t114 -115t107.5 -156.5t90 -195.5 t62 -232.5t23 -267.5v-16z" />
<glyph unicode="*" d="M538 645l-384 95l62 196l369 -160l-32 427h205l-35 -433l366 156l62 -199l-390 -90l261 -324l-167 -123l-210 369l-208 -358l-169 117z" />
<glyph unicode="+" d="M725 800h382v-225h-382v-429h-233v429h-383v225h383v406h233v-406z" />
<glyph unicode="," d="M681 33q0 -53 -13.5 -109t-39 -110t-61 -102.5t-78.5 -86.5l-135 71q43 72 66 151.5t23 177.5v209h239z" />
<glyph unicode="-" d="M1050 542h-801v193h801v-193z" />
<glyph unicode="." d="M454 143q0 35 11.5 66t33.5 53.5t54.5 35.5t74.5 13t74.5 -13t55 -35.5t34 -53.5t11.5 -66t-11.5 -64.5t-34 -51.5t-55 -34.5t-74.5 -12.5t-74.5 12.5t-54.5 34.5t-33.5 51.5t-11.5 64.5z" />
<glyph unicode="/" d="M451 -125h-218l576 1581h218z" />
<glyph unicode="0" d="M1090 554q0 -141 -32.5 -248.5t-93.5 -180t-149 -109.5t-198 -37q-109 0 -197 37t-149.5 109.5t-95 180t-33.5 248.5v348q0 141 33 248.5t94.5 180t149 109.5t196.5 37q110 0 198 -37t149.5 -109.5t94.5 -180t33 -248.5v-348zM382 645l466 347q-8 149 -65.5 220.5 t-167.5 71.5q-117 0 -175 -83t-58 -255v-301zM850 804l-466 -347q18 -286 233 -286q233 0 233 341v292z" />
<glyph unicode="1" d="M802 0h-241v1161l-372 -136v210l598 221h15v-1456z" />
<glyph unicode="2" d="M1083 0h-978v165l474 517q60 67 100.5 118.5t64.5 94.5t34 80t10 75q0 50 -15.5 92.5t-44 73t-69 47.5t-90.5 17q-130 0 -191.5 -71t-61.5 -196h-240q0 95 34.5 179.5t99 147.5t156.5 99.5t207 36.5q108 0 192 -31t142 -86.5t88 -131.5t30 -167q0 -68 -22 -131.5 t-61 -126.5t-93 -126.5t-117 -130.5l-330 -354h681v-191z" />
<glyph unicode="3" d="M404 836h143q63 0 110 16.5t78 46.5t46.5 71.5t15.5 91.5q0 106 -55.5 163.5t-167.5 57.5q-49 0 -90.5 -14.5t-72 -41.5t-47.5 -65t-17 -86h-239q0 86 34.5 159t96 126.5t146.5 84t186 30.5q103 0 189 -26.5t147 -78.5t95 -129.5t34 -179.5q0 -43 -13 -88t-39.5 -87 t-67 -78.5t-95.5 -61.5q66 -23 111 -59t73 -80.5t40 -95.5t12 -104q0 -102 -37 -182t-102.5 -134.5t-154.5 -83t-192 -28.5q-95 0 -181 26t-151.5 77.5t-104.5 128t-39 177.5h239q0 -48 17 -88.5t48.5 -69t75.5 -44.5t99 -16q114 0 179.5 60.5t65.5 175.5q0 63 -19 108.5 t-54.5 75t-85.5 43.5t-113 14h-143v188z" />
<glyph unicode="4" d="M943 517h183v-193h-183v-324h-239v324h-632l-6 145l630 987h247v-939zM312 517h392v620l-26 -47z" />
<glyph unicode="5" d="M195 722l79 734h779v-214h-581l-37 -345q35 20 93 39t134 19q103 0 184.5 -34t137.5 -97.5t86 -154t30 -204.5q0 -101 -28.5 -189.5t-87 -154t-147.5 -103.5t-210 -38q-91 0 -174.5 26.5t-148.5 78t-106.5 128.5t-47.5 179h231q14 -108 79 -164.5t167 -56.5q59 0 103 22 t73 61.5t43.5 95t14.5 121.5q0 63 -16.5 116t-49.5 91.5t-82 60.5t-113 22q-43 0 -74 -6.5t-55.5 -18t-44.5 -27.5t-40 -34z" />
<glyph unicode="6" d="M867 1462v-204h-16q-123 0 -211.5 -34.5t-147 -93.5t-89 -137.5t-38.5 -167.5q24 27 55 51.5t69 44t82 31t94 11.5q107 0 185.5 -41t129.5 -108.5t76 -155t25 -181.5q0 -105 -31.5 -195.5t-91.5 -157.5t-148 -105.5t-200 -38.5q-119 0 -210 47t-152.5 125.5t-93.5 181.5 t-32 216v93q0 107 16 209.5t51.5 193.5t92 167.5t136 131.5t184.5 86t238 31h27zM608 770q-41 0 -79 -12.5t-70 -35t-57 -54.5t-40 -70v-68q0 -89 19.5 -155.5t53.5 -111.5t78 -67.5t94 -22.5q56 0 100 22t74.5 61.5t46.5 94t16 119.5q0 61 -15 115.5t-45 95.5t-74 65 t-102 24z" />
<glyph unicode="7" d="M1096 1323l-583 -1323h-252l583 1257h-755v199h1007v-133z" />
<glyph unicode="8" d="M1063 1072q0 -107 -55 -190.5t-150 -131.5q54 -25 97.5 -61t74.5 -81t47.5 -98.5t16.5 -113.5q0 -101 -37 -179t-101 -130.5t-150.5 -79.5t-185.5 -27q-101 0 -188.5 27t-151.5 79.5t-100.5 130.5t-36.5 179q0 60 16.5 114t47 99t74 81t97.5 60q-94 48 -148 131.5 t-54 190.5q0 97 33 172.5t91.5 127t139.5 78t177 26.5t177.5 -26.5t141.5 -78t93.5 -127t33.5 -172.5zM855 408q0 55 -17 100t-48 77t-74.5 49.5t-97.5 17.5t-97.5 -17.5t-74 -49.5t-47 -77t-16.5 -100q0 -112 63 -174.5t174 -62.5q52 0 95.5 16t74.5 47t48 74.5t17 99.5z M824 1064q0 48 -15 88.5t-42 69.5t-65.5 45t-84.5 16q-47 0 -84.5 -15t-63.5 -43.5t-40 -69t-14 -91.5q0 -50 14.5 -90.5t41 -69t64.5 -44.5t85 -16q46 0 84 16t64.5 44.5t41 69t14.5 90.5z" />
<glyph unicode="9" d="M351 198q130 0 218.5 30.5t143.5 84.5t81.5 127.5t33.5 159.5q-22 -25 -50.5 -46.5t-64 -38t-78 -26t-93.5 -9.5q-107 0 -186 40.5t-131 108t-77.5 155.5t-25.5 184q0 105 31 197.5t91 161.5t147.5 109t199.5 40q121 0 210.5 -48t149 -129t89 -188.5t29.5 -226.5v-78 q0 -104 -13.5 -204.5t-46 -191t-86 -166.5t-133 -131.5t-188 -87t-250.5 -31.5h-19v204h18zM591 669q41 0 78.5 13t68.5 36t55 55t38 70v79q0 88 -19.5 155.5t-52.5 113t-76.5 68.5t-91.5 23q-56 0 -99 -24t-72.5 -65.5t-45 -97.5t-15.5 -120q0 -60 14 -115t42.5 -97.5 t72.5 -68t103 -25.5z" />
<glyph unicode=":" d="M485 143q0 35 11.5 66t33.5 53.5t54.5 35.5t74.5 13t74.5 -13t55 -35.5t34 -53.5t11.5 -66t-11.5 -64.5t-34 -51.5t-55 -34.5t-74.5 -12.5t-74.5 12.5t-54.5 34.5t-33.5 51.5t-11.5 64.5zM485 994q0 35 11.5 66t33.5 53.5t54.5 35.5t74.5 13t74.5 -13t55 -35.5t34 -53.5 t11.5 -66t-11.5 -64.5t-34 -51.5t-55 -34.5t-74.5 -12.5t-74.5 12.5t-54.5 34.5t-33.5 51.5t-11.5 64.5z" />
<glyph unicode=";" d="M500 994q0 35 11.5 66t33.5 53.5t54.5 35.5t74.5 13t74.5 -13t55 -35.5t34 -53.5t11.5 -66t-11.5 -64.5t-34 -51.5t-55 -34.5t-74.5 -12.5t-74.5 12.5t-54.5 34.5t-33.5 51.5t-11.5 64.5zM784 33q0 -53 -13.5 -109t-39 -110t-61 -102.5t-78.5 -86.5l-135 71 q43 72 66 151.5t23 177.5v209h239z" />
<glyph unicode="&#x3c;" d="M461 656l-65 -23l65 -22l568 -204v-240l-866 373v190l866 372v-239z" />
<glyph unicode="=" d="M1085 746h-920v199h920v-199zM1085 322h-920v199h920v-199z" />
<glyph unicode="&#x3e;" d="M169 867v236l893 -372v-191l-893 -373v237l600 213l65 20l-65 21z" />
<glyph unicode="?" d="M502 426q0 71 4 119t18 85t42 69.5t77 74.5q33 33 68 68.5t63.5 74t47 79.5t18.5 85q0 99 -55 147.5t-159 48.5q-40 0 -78.5 -10.5t-68.5 -32.5t-48.5 -56.5t-18.5 -82.5h-240q1 93 36.5 164.5t96.5 120t143 73t178 24.5q108 0 192 -25.5t142.5 -74.5t89 -121t30.5 -165 q0 -71 -24.5 -132.5t-64 -115.5t-88.5 -101t-97 -90q-30 -30 -46 -54t-23.5 -49t-8.5 -54t-1 -69h-225zM471 120q0 59 36.5 97.5t104.5 38.5t105.5 -38.5t37.5 -97.5q0 -57 -37.5 -94.5t-105.5 -37.5t-104.5 37.5t-36.5 94.5z" />
<glyph unicode="@" d="M1164 807q-3 -88 -20 -176t-51.5 -158t-88 -114t-128.5 -44q-55 0 -96 27.5t-62 78.5q-35 -49 -81.5 -77t-100.5 -28q-53 0 -93.5 25.5t-66 73.5t-35.5 115.5t-3 151.5q10 108 39 194t74 146t105 92.5t132 32.5q73 0 120 -25t75 -58l-43 -515q-3 -35 1.5 -55.5t13 -31 t20 -13t22.5 -2.5q30 0 54.5 27t42 74.5t27 113t9.5 142.5q4 124 -19.5 218t-72.5 157.5t-120.5 95.5t-162.5 32q-101 0 -182.5 -46.5t-139.5 -129.5t-91 -196.5t-37 -248.5q-11 -272 94 -411t308 -139q62 0 124.5 16.5t107.5 43.5l32 -129q-26 -19 -58.5 -33t-67.5 -23.5 t-71.5 -14t-69.5 -4.5q-144 0 -249.5 49.5t-173 140t-99 218.5t-26.5 286q5 157 51 296t125.5 243t188.5 164.5t240 60.5q118 0 213.5 -45.5t161 -129.5t99 -203t29.5 -265zM490 682q-5 -110 18.5 -163.5t68.5 -53.5q33 0 65 16t59 63v5l39 451q-20 6 -41 6 q-94 0 -143.5 -84t-65.5 -240z" />
<glyph unicode="A" d="M855 338h-455l-100 -338h-248l473 1456h211l464 -1456h-247zM461 543h334l-165 571z" />
<glyph unicode="B" d="M148 0v1456h465q105 -1 196.5 -24t160 -71t107.5 -122.5t38 -176.5q-1 -108 -60 -184.5t-159 -118.5q61 -17 108.5 -48.5t79.5 -75.5t49 -97.5t17 -113.5q0 -104 -38 -183t-105.5 -132t-160 -80.5t-199.5 -28.5h-499zM389 660v-464h262q57 1 104 17.5t81 45.5t53.5 71 t19.5 94q0 55 -17 98.5t-49 73.5t-78 46.5t-103 17.5h-273zM389 843h230q54 1 100.5 14.5t80.5 40t54 65t20 88.5q0 55 -19 94t-53.5 64t-81.5 36.5t-103 12.5h-228v-415z" />
<glyph unicode="C" d="M1132 447q-10 -105 -50 -191.5t-106 -148t-155.5 -95t-199.5 -33.5q-133 0 -232 51.5t-165 139.5t-99 206t-34 252v199q1 133 35 251.5t100.5 207t165.5 140t230 51.5q115 0 205 -34t154 -96t102 -151t49 -198h-240q-6 64 -24.5 116.5t-50.5 90t-80.5 57.5t-114.5 20 q-81 0 -136 -37t-89 -99.5t-48.5 -144.5t-14.5 -172v-201q0 -94 14.5 -176.5t47.5 -144.5t88 -98t137 -36q126 0 192 71.5t78 202.5h241z" />
<glyph unicode="D" d="M137 0v1456h356q150 -1 269.5 -50t203 -138t128.5 -212.5t46 -273.5v-110q-1 -150 -46 -273.5t-128 -212t-201 -137.5t-265 -49h-363zM381 1262v-1069h119q99 1 173 35.5t123.5 97t74 150.5t25.5 196v112q-1 105 -25.5 192t-74.5 150.5t-125.5 99t-177.5 36.5h-112z" />
<glyph unicode="E" d="M1002 653h-599v-457h701v-196h-942v1456h935v-198h-694v-411h599v-194z" />
<glyph unicode="F" d="M1021 620h-611v-620h-242v1456h943v-198h-701v-441h611v-197z" />
<glyph unicode="G" d="M1126 182q-37 -44 -87 -81t-112 -64t-134.5 -42t-154.5 -15q-131 0 -232 51t-170.5 139.5t-106 208.5t-37.5 258v180q0 138 36 258t103.5 209t165.5 140.5t224 51.5q113 0 202 -31t153 -89.5t101.5 -142.5t47.5 -188h-236q-9 59 -28 106t-51 80t-77.5 50.5t-107.5 17.5 q-76 0 -130.5 -37.5t-90.5 -101t-53 -147t-18 -174.5v-182q1 -91 18.5 -174t55 -146.5t96.5 -101.5t142 -39q34 0 70 4.5t68.5 14.5t59.5 25.5t44 38.5l2 291h-263v187h498z" />
<glyph unicode="H" d="M1092 0h-234v650h-495v-650h-233v1456h233v-609h495v609h234v-1456z" />
<glyph unicode="I" d="M181 1456h866v-199h-315v-1059h315v-198h-866v198h308v1059h-308v199z" />
<glyph unicode="J" d="M832 1456h243l1 -1011q-2 -102 -39.5 -187.5t-103 -147t-153.5 -96t-191 -34.5q-107 0 -194 29.5t-150 86t-100 139.5t-42 190h242q5 -118 66.5 -183.5t177.5 -65.5q55 0 100 21t76.5 58t48.5 85.5t18 104.5v1011z" />
<glyph unicode="K" d="M546 633l-156 -175v-458h-243v1456h243v-682l133 173l383 509h293l-495 -639l520 -817h-288z" />
<glyph unicode="L" d="M412 196h694v-196h-934v1456h240v-1260z" />
<glyph unicode="M" d="M433 1456l181 -629l200 629h298v-1456h-226v500l14 638l-224 -698h-126l-203 674l14 -614v-500h-226v1456h298z" />
<glyph unicode="N" d="M1091 0h-242l-474 1002l-1 -1002h-243v1456h243l472 -999l2 999h243v-1456z" />
<glyph unicode="O" d="M1136 634q0 -129 -33 -247.5t-98.5 -209t-164 -144t-230.5 -53.5q-131 0 -228 54t-161.5 144.5t-97 208.5t-32.5 247v186q0 86 14.5 168t43 154.5t71 134t100 105.5t130 69t159.5 25q132 0 230.5 -54t164.5 -144.5t99 -209.5t33 -248v-186zM895 822q-1 82 -15 163 t-47 144.5t-87.5 103t-136.5 39.5q-81 0 -134.5 -39.5t-85 -103.5t-44 -144.5t-13.5 -162.5v-188q1 -82 14 -162.5t44.5 -145t85 -104.5t134.5 -40q82 0 136.5 40t87.5 104t46.5 145t14.5 163v188z" />
<glyph unicode="P" d="M407 558v-558h-240v1456h487q109 -1 201.5 -32.5t159.5 -90t104.5 -142t37.5 -188.5q0 -102 -37.5 -184t-104.5 -140t-159.5 -89t-201.5 -32h-247zM407 752h247q61 0 109 18.5t82 51.5t52 79t18 100q0 57 -18 105t-52 82.5t-82 53.5t-109 20h-247v-510z" />
<glyph unicode="Q" d="M1146 622q0 -74 -13 -146t-37.5 -139t-62 -125.5t-86.5 -104.5l248 -213l-159 -145l-284 249q-32 -8 -66.5 -13t-72.5 -5q-133 0 -231.5 55.5t-163.5 146t-97 205.5t-33 235v186q1 87 15 170.5t43 158t72 136.5t101 107.5t131.5 70.5t162.5 25q134 0 234 -55t166 -147.5 t99 -213.5t34 -252v-186zM904 810q0 85 -13.5 168t-46.5 148t-89.5 105.5t-141.5 40.5t-139.5 -40.5t-86.5 -106t-44.5 -148.5t-12.5 -167v-188q0 -74 12.5 -151.5t44.5 -142t86.5 -105.5t139.5 -41q86 0 142 41t89 105t46.5 142t13.5 152v188z" />
<glyph unicode="R" d="M637 568h-244v-568h-240v1456h460q112 -1 206.5 -28.5t163.5 -82t107 -136.5t38 -192q0 -74 -19.5 -134.5t-54.5 -109.5t-84 -86t-108 -63l308 -612v-12h-256zM393 762h221q60 0 110 17t86.5 48.5t56.5 77t20 104.5q0 61 -19 108t-54.5 79t-86.5 48.5t-114 17.5h-220 v-500z" />
<glyph unicode="S" d="M905 375q0 52 -21.5 91.5t-61 69.5t-94 52.5t-118.5 41.5q-86 25 -169.5 62t-149 90.5t-106 125t-40.5 165.5t40.5 168.5t108.5 126.5t158 80t188 28q105 0 196.5 -32.5t160 -91t108.5 -140t41 -180.5h-240q-5 55 -23.5 100.5t-52 78.5t-81.5 51t-111 18q-54 0 -100 -14 t-79.5 -41t-52.5 -65t-19 -86q0 -51 26 -88.5t68 -65.5t96.5 -48.5t113.5 -37.5q91 -27 174 -66.5t146 -95t100 -128.5t37 -167q0 -97 -41 -171t-110 -124t-160 -75.5t-190 -25.5q-67 0 -133 13t-126.5 39t-112.5 64.5t-90.5 89t-60.5 113t-23 137.5h241q5 -66 29 -115 t64 -81.5t93.5 -49t118.5 -16.5q54 0 101 13t82 38.5t55 63t20 85.5z" />
<glyph unicode="T" d="M1180 1258h-447v-1258h-239v1258h-444v198h1130v-198z" />
<glyph unicode="U" d="M1096 1456l2 -975q-1 -112 -36 -204.5t-98 -158.5t-152.5 -102t-200.5 -36q-108 0 -196 36t-151 101.5t-98 158t-36 205.5l2 975h236l2 -975q1 -67 17 -123t46 -96.5t74.5 -63t103.5 -22.5q60 0 106 22.5t77 63t47 96.5t17 123l2 975h236z" />
<glyph unicode="V" d="M612 365l303 1091h262l-450 -1456h-229l-449 1456h262z" />
<glyph unicode="W" d="M867 501l104 955h224l-186 -1456h-230l-159 968l-157 -968h-229l-186 1456h224l104 -950l149 950h188z" />
<glyph unicode="X" d="M624 914l280 542h283l-415 -722l425 -734h-281l-288 551l-288 -551h-284l425 734l-414 722h281z" />
<glyph unicode="Y" d="M616 760l303 696h268l-454 -933l-2 -523h-233l-2 529l-451 927h268z" />
<glyph unicode="Z" d="M383 196h735v-196h-1017l-1 162l712 1096h-706v198h989l1 -158z" />
<glyph unicode="[" d="M837 1489h-194v-1625h194v-187h-427v2000h427v-188z" />
<glyph unicode="\" d="M233 1456h219l577 -1581h-220z" />
<glyph unicode="]" d="M400 1677h428v-2000h-428v187h195v1625h-195v188z" />
<glyph unicode="^" d="M425 683h-205l319 773h169l318 -773h-204l-180 458l-20 84l-20 -84z" />
<glyph unicode="_" d="M1068 -188h-918v188h918v-188z" />
<glyph unicode="`" d="M858 1205h-190l-259 273h273z" />
<glyph unicode="a" d="M845 0q-10 20 -16.5 47t-11.5 58q-25 -26 -56.5 -48.5t-70 -39.5t-83 -27t-95.5 -10q-86 0 -155.5 24.5t-119 68t-76.5 102.5t-27 128q0 174 129.5 266t371.5 92h175v71q0 86 -58 136.5t-164 50.5q-48 0 -84 -11.5t-60 -31.5t-36 -47t-12 -58h-239q0 63 29.5 122.5 t86.5 106t139.5 74.5t188.5 28q96 0 178 -23.5t142 -70t94 -116t34 -162.5v-482q0 -71 10.5 -129.5t30.5 -101.5v-17h-245zM557 173q46 0 86.5 11.5t73 30t56 42.5t37.5 49v203h-152q-146 0 -215.5 -47t-69.5 -134q0 -33 11 -61.5t33.5 -49t57 -32.5t82.5 -12z" />
<glyph unicode="b" d="M1106 529q0 -120 -27.5 -220.5t-81.5 -173.5t-133 -114t-182 -41q-99 0 -171.5 35t-124.5 101l-11 -116h-217v1536h239v-557q51 59 120 91t163 32q104 0 183.5 -40.5t133.5 -113.5t81.5 -174.5t27.5 -223.5v-21zM867 550q0 72 -12.5 136.5t-41 113.5t-76.5 77.5 t-118 28.5q-85 0 -139 -39t-83 -102v-447q29 -63 83.5 -103t140.5 -40q68 0 115 27.5t76 75.5t42 112.5t13 138.5v21z" />
<glyph unicode="c" d="M628 170q44 0 85.5 14t73.5 39t50.5 59t17.5 74h226q1 -78 -35.5 -146.5t-99 -119.5t-144.5 -81t-172 -30q-125 0 -219 43t-157 117.5t-94.5 173t-31.5 209.5v36q0 111 31.5 210t94.5 173t157 117.5t218 43.5q98 0 181.5 -30t144 -84t94 -129t32.5 -164h-226 q1 44 -15.5 83t-47.5 68t-73 46t-92 17q-75 0 -125 -30.5t-80 -80t-42.5 -112.5t-12.5 -128v-36q0 -66 12.5 -129t42.5 -112.5t80 -80t126 -30.5z" />
<glyph unicode="d" d="M123 549q0 123 30 225t86 175t135.5 113t178.5 40q89 0 157 -30.5t119 -87.5v552h240v-1536h-217l-12 110q-51 -63 -122.5 -96.5t-166.5 -33.5q-98 0 -177 41.5t-134.5 114.5t-86 173.5t-30.5 218.5v21zM362 528q0 -73 14 -137t44.5 -112t78 -75.5t113.5 -27.5 q82 0 134 35.5t83 95.5v470q-31 59 -83.5 94t-131.5 35q-67 0 -114.5 -28t-78 -77t-45 -114t-14.5 -138v-21z" />
<glyph unicode="e" d="M659 -20q-120 0 -219 40t-169.5 110t-109.5 165.5t-39 206.5v41q0 129 41.5 232t111 176t162 112t194.5 39q118 0 208 -39.5t150.5 -111t91.5 -169.5t31 -215v-101h-750q6 -63 31 -117t65.5 -93.5t95 -62t119.5 -22.5q91 0 167.5 36t124.5 99l130 -122q-26 -39 -67 -75.5 t-96 -65t-123.5 -46t-149.5 -17.5zM630 909q-50 0 -93 -18t-77 -52.5t-57.5 -84t-33.5 -112.5h507v18q-3 48 -18.5 92.5t-45.5 79.5t-75.5 56t-106.5 21z" />
<glyph unicode="f" d="M427 0v904h-291v178h291v67q0 105 31.5 185.5t91 135t143.5 83t189 28.5q69 0 131.5 -10.5t130.5 -24.5l-21 -190q-39 11 -91 19.5t-117 8.5q-129 0 -188.5 -61t-59.5 -174v-67h402v-178h-402v-904h-240z" />
<glyph unicode="g" d="M124 549q0 123 30.5 225t87.5 175t137.5 113t180.5 40q97 0 168 -33t122 -95l10 108h217v-1053q0 -109 -36 -193.5t-100.5 -142.5t-154.5 -88.5t-198 -30.5q-44 0 -99.5 9.5t-111.5 31t-107 56t-87 83.5l114 143q61 -72 131.5 -103t145.5 -31q60 0 109 17t83 50 t52.5 81.5t18.5 111.5v73q-51 -56 -119.5 -86t-159.5 -30q-99 0 -179 41.5t-137 114.5t-87.5 173.5t-30.5 218.5v21zM364 528q0 -73 15 -137t46 -112t79.5 -75.5t114.5 -27.5q83 0 135 34.5t83 92.5v478q-32 57 -84 91t-132 34q-66 0 -114.5 -28t-80 -77t-47 -114 t-15.5 -138v-21z" />
<glyph unicode="h" d="M394 932q56 80 136.5 125t179.5 45q84 0 154.5 -25t120.5 -77.5t78 -135t28 -197.5v-667h-239v669q0 62 -15.5 106.5t-44 73.5t-69.5 43t-93 14q-78 0 -138 -32.5t-98 -87.5v-786h-239v1536h239v-604z" />
<glyph unicode="i" d="M207 1082h577v-884h321v-198h-898v198h336v685h-336v199zM523 1362q0 56 36 92.5t101 36.5q66 0 102.5 -36.5t36.5 -92.5t-36.5 -92.5t-102.5 -36.5q-65 0 -101 36.5t-36 92.5z" />
<glyph unicode="j" d="M303 1082h554v-1099q0 -106 -30 -184.5t-86.5 -131t-139 -78.5t-187.5 -26q-51 0 -99 3.5t-96 13.5l14 194q14 -3 37.5 -5.5t48 -4t47 -2t34.5 -0.5q45 0 84.5 11t69 36.5t46 68t16.5 105.5v900h-313v199zM595 1362q0 56 36 92.5t101 36.5q66 0 102.5 -36.5t36.5 -92.5 t-36.5 -92.5t-102.5 -36.5q-65 0 -101 36.5t-36 92.5z" />
<glyph unicode="k" d="M525 473l-130 -124v-349h-239v1536h239v-905l101 113l318 338h288l-418 -450l482 -632h-298z" />
<glyph unicode="l" d="M199 1536h585v-1338h330v-198h-915v198h344v1139h-344v199z" />
<glyph unicode="m" d="M293 1082l6 -114q32 63 86 98.5t130 35.5q69 0 114.5 -27.5t68.5 -85.5q32 52 82 82.5t121 30.5q53 0 97.5 -17.5t76 -55.5t49 -97t17.5 -142v-790h-222v792q0 65 -27.5 89.5t-70.5 24.5q-41 0 -65 -19.5t-35 -51.5v-835h-217v792q0 63 -25.5 88.5t-69.5 25.5 q-42 0 -66 -18t-37 -49v-839h-222v1082h209z" />
<glyph unicode="n" d="M371 1082l15 -150q59 81 142.5 125.5t185.5 44.5q83 0 151.5 -24t118 -75t77 -132t27.5 -195v-676h-239v672q0 67 -15.5 112t-44 72t-69.5 38.5t-93 11.5q-79 0 -137.5 -35t-94.5 -95v-776h-240v1082h216z" />
<glyph unicode="o" d="M111 551q0 117 34.5 218t99 175t157.5 116t211 42q119 0 212.5 -42t158 -116t98.5 -175t34 -218v-21q0 -118 -34 -219t-98.5 -174.5t-157.5 -115.5t-211 -42q-119 0 -212.5 42t-158 115.5t-99 174.5t-34.5 219v21zM350 530q0 -74 15.5 -139t48 -114.5t82.5 -78t119 -28.5 q67 0 116.5 28.5t82 78t48 114.5t15.5 139v21q0 72 -15.5 137t-48 114t-82 78t-118.5 29q-68 0 -118 -29t-82 -78t-47.5 -114t-15.5 -137v-21z" />
<glyph unicode="p" d="M1102 530q0 -118 -28 -219t-82 -174.5t-132.5 -115t-180.5 -41.5q-92 0 -162.5 30t-121.5 86v-512h-239v1498h220l10 -109q52 62 123.5 95.5t166.5 33.5q103 0 182.5 -40t133.5 -112.5t82 -174t28 -224.5v-21zM863 551q0 73 -15 137.5t-46 113t-79 76.5t-114 28 q-80 0 -132 -34t-82 -91v-484q30 -56 81.5 -91t134.5 -35q66 0 114 29t78.5 78t45 114t14.5 138v21z" />
<glyph unicode="q" d="M124 550q0 123 29 225t84.5 174.5t136 112.5t183.5 40q94 0 164 -32.5t122 -92.5l12 105h214v-1498h-239v507q-51 -54 -119 -82.5t-156 -28.5q-101 0 -181 41.5t-135.5 115t-85 174t-29.5 218.5v21zM363 529q0 -73 14.5 -138t45.5 -114t79 -77.5t114 -28.5q80 0 131 33.5 t83 90.5v496q-32 54 -83.5 86t-128.5 32q-67 0 -115 -28.5t-79 -77.5t-46 -114.5t-15 -138.5v-21z" />
<glyph unicode="r" d="M898 1102q29 0 58 -2t55.5 -6t48.5 -8.5t37 -10.5l-34 -235q-110 25 -217 25q-120 0 -193.5 -50t-108.5 -139v-676h-239v1082h224l11 -169q66 88 156.5 138.5t201.5 50.5z" />
<glyph unicode="s" d="M860 293q0 27 -11 49.5t-39.5 41t-78 34.5t-126.5 31q-96 20 -173.5 48t-133 67t-85.5 90.5t-30 119.5q0 66 31 125.5t88.5 104.5t140 71.5t184.5 26.5q108 0 193.5 -27t144.5 -73.5t90.5 -109.5t31.5 -135h-239q0 32 -14 61.5t-42 52.5t-69.5 36.5t-95.5 13.5 t-93.5 -11.5t-65.5 -30t-38.5 -43.5t-12.5 -52t9.5 -49t35.5 -40t72 -32.5t119 -27.5q102 -18 183.5 -45t139 -66t88.5 -92.5t31 -125.5t-33 -132t-94 -103.5t-146.5 -67.5t-191.5 -24q-118 0 -208 31.5t-151 82.5t-92.5 116t-31.5 132h232q3 -50 26 -85t59 -56.5t80 -31 t89 -9.5q111 0 169 37.5t58 96.5z" />
<glyph unicode="t" d="M634 1344v-262h409v-178h-409v-519q0 -61 14.5 -101t40.5 -64t61 -33.5t77 -9.5q31 0 64.5 3.5t65 8t58 10t44.5 10.5l27 -165q-26 -15 -62.5 -27.5t-79.5 -20.5t-89.5 -12.5t-91.5 -4.5q-81 0 -148.5 22.5t-116 70t-76 122t-27.5 178.5v532h-264v178h264v262h239z" />
<glyph unicode="u" d="M849 148q-55 -80 -133.5 -124.5t-175.5 -44.5q-84 0 -153.5 26t-119 82.5t-77 144t-27.5 210.5v640h239v-642q0 -78 11.5 -129t35.5 -81t60 -42.5t86 -12.5q96 0 155 37.5t89 101.5v768h240v-1082h-216z" />
<glyph unicode="v" d="M598 302l17 -80l18 79l262 781h247l-424 -1082h-206l-428 1082h247z" />
<glyph unicode="w" d="M360 356l7 -69l11 69l155 726h157l157 -734l11 -72l9 79l105 727h216l-211 -1082h-201l-164 724l-2 13l-2 -12l-161 -725h-200l-211 1082h215z" />
<glyph unicode="x" d="M628 716l258 366h266l-382 -533l394 -549h-265l-268 379l-267 -379h-267l394 549l-382 533h265z" />
<glyph unicode="y" d="M584 433l41 -130l304 779h265l-548 -1246q-18 -41 -47 -88.5t-71.5 -88.5t-101.5 -68.5t-138 -27.5q-33 0 -66.5 5.5t-59.5 12.5l34 186q7 0 19 -0.5t25 -1.5t24.5 -1.5t18.5 -0.5q35 0 62.5 20.5t48.5 47t34.5 52t19.5 34.5l71 134l-460 1031h264z" />
<glyph unicode="z" d="M455 191h654v-191h-969v158l618 730h-608v194h930v-153z" />
<glyph unicode="{" d="M960 -360q-66 0 -120 20t-96.5 54t-73 80t-51 98t-30 106.5t-9.5 107.5v163q0 139 -65.5 200t-199.5 61v176q134 0 199.5 61.5t65.5 201.5v163q0 52 8.5 107t27.5 107t48.5 97.5t72 79.5t98 54t125.5 20l27 -139q-66 1 -103 -28.5t-54 -76.5t-20.5 -105.5t-3.5 -115.5 v-163q0 -119 -57 -211t-177 -140q121 -48 177.5 -139t56.5 -210v-163q0 -57 7.5 -115.5t28 -105.5t55.5 -76.5t90 -28.5z" />
<glyph unicode="|" d="M701 -410h-167v1866h167v-1866z" />
<glyph unicode="}" d="M327 -220q55 -1 90 28.5t55 76.5t28 105.5t8 115.5v163q0 117 55 208.5t172 140.5q-117 49 -172 141t-55 210v163q0 57 -3.5 115.5t-20.5 105.5t-54 76.5t-103 28.5l27 139q70 0 125.5 -20t98 -54t72 -79.5t48.5 -97.5t27.5 -107t8.5 -107v-163q0 -140 65 -201.5 t200 -61.5v-176q-135 0 -200 -61t-65 -200v-163q0 -52 -9.5 -107t-30 -107t-51 -98t-73 -80t-96.5 -54t-120 -20z" />
<glyph unicode="~" d="M1163 746q0 -74 -22.5 -139.5t-63 -114t-97 -76.5t-123.5 -28q-45 0 -85 8.5t-77.5 25.5t-74.5 42.5t-77 60.5q-52 42 -99 65.5t-97 23.5q-30 0 -57 -14t-47.5 -37t-33 -53.5t-12.5 -64.5l-161 20q0 74 22 138t62.5 111t96.5 73.5t124 26.5q90 0 164.5 -35t150.5 -100 q54 -45 99.5 -67.5t94.5 -22.5q30 0 57 14.5t47 39t32 56.5t12 66z" />
<glyph unicode="&#xa0;" />
<glyph unicode="&#xa1;" d="M514 584h226l8 -961h-243zM771 966q0 -57 -37.5 -94.5t-105.5 -37.5t-104.5 37.5t-36.5 94.5q0 58 36.5 97.5t104.5 39.5t105.5 -39.5t37.5 -97.5z" />
<glyph unicode="&#xa2;" d="M642 170q44 0 85.5 14t73.5 39t50.5 59t17.5 74h226q1 -68 -27.5 -129t-77.5 -110t-115.5 -83t-141.5 -47v-232h-200v234q-98 18 -171 67t-122 120t-73.5 159.5t-24.5 186.5v36q0 98 24.5 186.5t73.5 160t122.5 120.5t170.5 67v226h200v-223q81 -13 147.5 -47.5 t114.5 -86.5t74.5 -119.5t25.5 -146.5h-226q1 44 -15.5 83t-47.5 68t-73 46t-92 17q-75 0 -125 -30.5t-80 -80t-42.5 -112.5t-12.5 -128v-36q0 -66 12.5 -129t42.5 -112.5t80 -80t126 -30.5z" />
<glyph unicode="&#xa3;" d="M514 604l7 -186q0 -66 -15 -123t-48 -102h704v-193h-1047v193h80q25 6 41.5 29.5t26 55t13 67.5t3.5 67l-6 192h-161v190h155l-8 246q0 103 34 184.5t94 137t143 85t182 29.5q102 0 182 -28.5t134.5 -81t83.5 -126t29 -163.5h-235q0 56 -17 95.5t-45.5 64t-66 35.5 t-77.5 11q-42 0 -78.5 -16t-64 -46.5t-43 -76t-15.5 -104.5l8 -246h312v-190h-305z" />
<glyph unicode="&#xa4;" d="M914 78q-61 -48 -135 -73t-155 -25t-154.5 25t-135.5 71l-100 -102l-141 144l108 110q-35 60 -54 131t-19 149q0 83 21.5 157t59.5 136l-116 119l141 144l114 -117q60 42 129.5 64.5t146.5 22.5t147 -23t130 -65l116 119l142 -145l-120 -123q38 -62 58.5 -135t20.5 -154 q0 -78 -18.5 -147.5t-52.5 -129.5l112 -113l-142 -145zM314 508q0 -72 24 -134.5t66 -109t98.5 -73t121.5 -26.5q64 0 120.5 26.5t98.5 73t66 109t24 134.5t-24 134t-66 107.5t-98.5 72t-120.5 26.5q-65 0 -121.5 -26.5t-98.5 -72t-66 -107.5t-24 -134z" />
<glyph unicode="&#xa5;" d="M619 814l324 642h269l-398 -714h278v-147h-357v-143h357v-146h-357v-306h-240v306h-358v146h358v143h-358v147h287l-399 714h269z" />
<glyph unicode="&#xa6;" d="M496 -270v795h226v-795h-226zM722 698h-226v758h226v-758z" />
<glyph unicode="&#xa7;" d="M1157 453q0 -94 -44.5 -162.5t-125.5 -110.5q65 -50 99.5 -118t34.5 -167q0 -89 -35.5 -158t-101.5 -116.5t-159 -72t-207 -24.5q-66 0 -131 9t-124.5 29.5t-110.5 53t-88.5 80t-58.5 110t-21 143.5l239 2q0 -68 26.5 -113t68.5 -72t94.5 -38t105.5 -11q64 0 113 13 t82.5 36.5t51 56t17.5 70.5q0 40 -15.5 69.5t-53 55t-99.5 49t-155 51.5q-111 30 -198 65t-147.5 84.5t-92.5 116t-32 159.5q0 92 44 161t125 112q-65 50 -99 118t-34 168q0 85 35.5 154t101.5 118t159.5 75.5t208.5 26.5q118 0 211.5 -28t159 -82.5t100.5 -134.5t35 -184 h-239q0 49 -17.5 92t-51 75.5t-83.5 51t-115 18.5q-69 0 -119 -14.5t-82.5 -39t-48 -57t-15.5 -69.5q0 -44 13.5 -74.5t49.5 -55.5t98 -47.5t159 -48.5q113 -30 201 -66t148 -85t91.5 -115.5t31.5 -158.5zM596 674q-43 11 -82.5 23.5t-75.5 25.5q-57 -21 -84 -64.5 t-27 -101.5q0 -45 13.5 -77t49.5 -58t98 -49.5t159 -51.5q43 -12 82.5 -24t74.5 -25q57 23 87 66t30 100q0 41 -16 72.5t-53.5 58.5t-100 52t-155.5 53z" />
<glyph unicode="&#xa8;" d="M273 1366q0 50 33.5 84t92.5 34t92.5 -34t33.5 -84t-33.5 -83.5t-92.5 -33.5t-92.5 33.5t-33.5 83.5zM728 1365q0 50 33 83.5t92 33.5t92.5 -33.5t33.5 -83.5t-33.5 -84t-92.5 -34t-92 34t-33 84z" />
<glyph unicode="&#xa9;" d="M863 442q0 -119 -67.5 -177t-183.5 -58q-60 0 -108.5 21t-82.5 59t-52 91t-18 118v90q0 64 18 117.5t52 92t82.5 60t108.5 21.5q117 0 184.5 -59.5t67.5 -177.5h-117q0 72 -34 103.5t-101 31.5q-36 0 -63.5 -14t-45.5 -39t-27.5 -59.5t-9.5 -75.5v-91q0 -42 9.5 -76.5 t27.5 -59t45.5 -38.5t63.5 -14q67 0 100.5 30t33.5 104h117zM181 542q0 -99 34.5 -185t94.5 -149.5t140.5 -99.5t172.5 -36q91 0 171 36t140 99.5t94.5 149.5t34.5 185t-34.5 184t-94.5 148t-140 98.5t-171 35.5q-92 0 -172.5 -35.5t-140.5 -98.5t-94.5 -148t-34.5 -184z M90 542q0 118 42 220.5t114.5 178t169.5 118.5t207 43t206.5 -43t168.5 -118.5t114 -178t42 -220.5q0 -119 -42 -221.5t-114 -178.5t-168.5 -119t-206.5 -43t-207 43t-169.5 119t-114.5 178.5t-42 221.5z" />
<glyph unicode="&#xaa;" d="M768 705q-15 43 -21 94q-14 -21 -34.5 -40.5t-48 -34.5t-62.5 -24t-77 -9q-60 0 -106.5 16t-78 46t-48 72t-16.5 94q0 111 83.5 171t247.5 60h137v51q0 62 -28.5 94.5t-87.5 32.5q-65 0 -101.5 -25.5t-36.5 -73.5l-173 14q0 51 22 93.5t63 73.5t98 48.5t128 17.5 q66 0 119.5 -17.5t91.5 -52t59 -86t21 -120.5v-314q0 -49 6 -93t20 -88h-177zM568 835q26 0 53.5 8t52 21.5t43 30t27.5 33.5v105h-136q-39 0 -68 -9t-49 -24t-30 -35t-10 -42q0 -42 28.5 -65t88.5 -23z" />
<glyph unicode="&#xab;" d="M402 503l248 -399h-166l-288 390v19l288 390h166zM759 503l248 -399h-166l-288 390v19l288 390h166z" />
<glyph unicode="&#xac;" d="M1021 374h-200v260h-635v171h835v-431z" />
<glyph unicode="&#xad;" d="M1050 542h-801v193h801v-193z" />
<glyph unicode="&#xae;" d="M88 541q0 119 42 221.5t114 178t169 118.5t207 43t207 -43t169 -118.5t114 -178t42 -221.5t-42 -221.5t-114 -178.5t-169 -119t-207 -43t-207 43t-169 119t-114 178.5t-42 221.5zM179 541q0 -99 34.5 -184.5t94.5 -148.5t140.5 -99t171.5 -36t171.5 36t140.5 99 t94.5 148.5t34.5 184.5t-34.5 184.5t-94.5 148.5t-140.5 98.5t-171.5 35.5t-171.5 -35.5t-140.5 -98.5t-94.5 -148.5t-34.5 -184.5zM512 484v-252h-113v637h211q111 0 177.5 -48t66.5 -145q0 -56 -35 -95t-101 -62l146 -287h-116l-117 252h-119zM512 585h114q22 0 43 6 t37 17t25.5 27t9.5 37q0 55 -29 76t-102 21h-98v-184z" />
<glyph unicode="&#xaf;" d="M989 1299h-726v157h726v-157z" />
<glyph unicode="&#xb0;" d="M358 1208q0 55 21 103.5t57 85t84 58t102 21.5q53 0 100 -21.5t82.5 -58t56 -85t20.5 -103.5t-20.5 -103t-56 -84t-82.5 -56.5t-100 -20.5q-54 0 -102 20.5t-84 56.5t-57 84t-21 103zM496 1208q0 -27 10 -49.5t27.5 -39t40 -26t48.5 -9.5q25 0 47.5 9.5t38.5 26t25.5 39 t9.5 49.5t-9.5 50.5t-25.5 41t-38.5 27t-47.5 9.5q-26 0 -48.5 -9.5t-40 -27t-27.5 -41t-10 -50.5z" />
<glyph unicode="&#xb1;" d="M723 896h345v-196h-345v-390h-212v390h-359v196h359v379h212v-379zM1029 1h-847v193h847v-193z" />
<glyph unicode="&#xb2;" d="M935 667h-611v124l287 264q62 55 87 97.5t25 70.5q0 42 -27.5 69t-79.5 27q-32 0 -55.5 -9.5t-39 -26t-23 -38t-7.5 -46.5h-185q0 55 21 103.5t60 85t95.5 58t127.5 21.5q142 0 220.5 -64.5t78.5 -178.5q0 -42 -13.5 -77.5t-39.5 -70t-64 -70.5t-87 -77l-142 -115h372 v-147z" />
<glyph unicode="&#xb3;" d="M520 1131h87q64 0 95 27t31 71q0 18 -6.5 34t-20.5 28t-36 19.5t-53 7.5q-49 0 -81.5 -20t-32.5 -55h-185q0 53 23.5 94.5t63.5 70t93.5 43.5t113.5 15q68 0 124.5 -14.5t97 -43t62.5 -71t22 -97.5q0 -58 -35.5 -102t-99.5 -68q73 -20 111 -65t38 -118q0 -56 -24.5 -99 t-67.5 -72.5t-101.5 -45t-126.5 -15.5q-56 0 -111 13.5t-98 42t-69.5 74t-26.5 109.5h185q0 -38 34.5 -65t94.5 -27q64 0 94.5 28t30.5 70q0 57 -36.5 80t-102.5 23h-87v128z" />
<glyph unicode="&#xb4;" d="M577 1478h274l-277 -273h-182z" />
<glyph unicode="&#xb5;" d="M417 1082v-620q0 -91 15 -147.5t41.5 -88t62.5 -43t79 -11.5q91 0 145.5 32.5t83.5 90.5v787h239v-1082h-219l-7 88q-44 -52 -103.5 -80.5t-137.5 -28.5q-122 0 -199 56v-451h-239v1498h239z" />
<glyph unicode="&#xb6;" d="M786 0v520h-83q-119 0 -211 35t-154.5 97.5t-94.5 148.5t-32 187q0 100 32 186t94.5 148.5t154.5 98t211 35.5h291v-1456h-208z" />
<glyph unicode="&#xb7;" d="M496 716q0 28 9.5 52.5t27 42.5t43.5 28t59 10t59 -10t44 -28t27.5 -42.5t9.5 -52.5t-9.5 -52t-27.5 -42t-44 -28t-59 -10t-59 10t-43.5 28t-27 42t-9.5 52z" />
<glyph unicode="&#xb8;" d="M654 2l-12 -53q28 -5 55 -16.5t48 -32t34 -51t13 -73.5q0 -50 -20.5 -91t-61.5 -70t-101.5 -45t-140.5 -16l-7 136q30 0 55 5t43.5 15.5t29 27.5t10.5 41q0 45 -35.5 62.5t-115.5 22.5l31 138h175z" />
<glyph unicode="&#xb9;" d="M773 662h-184v572l-201 -49v145l366 119h19v-787z" />
<glyph unicode="&#xba;" d="M267 1141q0 73 24 134.5t69 106t109 69.5t144 25q81 0 145 -25t109 -69.5t69 -106t24 -134.5v-117q0 -73 -24 -134.5t-68.5 -105.5t-108.5 -69t-144 -25t-144.5 25t-109.5 69t-69.5 105.5t-24.5 134.5v117zM442 1024q0 -41 10.5 -75t32 -59.5t54 -39.5t76.5 -14 q43 0 75 14t53 39.5t31.5 59.5t10.5 75v117q0 40 -10.5 74t-32 59t-54 39.5t-75.5 14.5t-75 -14.5t-53.5 -39.5t-32 -59t-10.5 -74v-117z" />
<glyph unicode="&#xbb;" d="M399 938l289 -390v-19l-289 -390h-166l248 399l-248 400h166zM760 938l289 -390v-19l-289 -390h-166l248 399l-248 400h166z" />
<glyph unicode="&#xbc;" d="M429.518 676h-165.604v514.814l-180.904 -44.1016v130.504l329.409 107.103h17.0996v-708.319zM417 232l-126 68l511 938l126 -68zM1049.72 281.708h87.3027v-135.004h-87.3027v-146.704h-167.404v146.704h-321.309l-8.10059 108.003l328.509 455.412h168.305v-428.411z M714.911 281.708h167.405v216.905l-10.8008 -17.1006z" />
<glyph unicode="&#xbd;" d="M351 232l-126 68l511 938l126 -68zM403.518 674h-165.604v514.814l-180.904 -44.1016v130.504l329.409 107.103h17.0996v-708.319zM1155.62 0h-549.915v111.604l258.307 237.605q55.8018 49.502 78.3027 87.7529q22.5 38.251 22.5 63.4521q0 37.8008 -24.75 62.1016 q-24.751 24.3008 -71.5527 24.3008q-28.8008 0 -49.9512 -8.55078q-21.1504 -8.5498 -35.1006 -23.4004t-20.7012 -34.2012q-6.75 -19.3506 -6.75 -41.8516h-166.504q0 49.502 18.9004 93.1533t54.001 76.502q35.1016 32.8506 85.9521 52.2012 q50.8516 19.3506 114.754 19.3506q127.803 0 198.455 -58.0518t70.6523 -160.654q0 -37.8008 -12.1504 -69.752q-12.1504 -31.9502 -35.5518 -63.002q-23.4004 -31.0508 -57.6016 -63.4512q-34.2002 -32.4014 -78.3018 -69.3018l-127.804 -103.503h334.81v-132.304z" />
<glyph unicode="&#xbe;" d="M493 232l-126 68l511 938l126 -68zM1085.72 281.708h87.3027v-135.004h-87.3027v-146.704h-167.404v146.704h-321.309l-8.10059 108.003l328.509 455.412h168.305v-428.411zM750.911 281.708h167.405v216.905l-10.8008 -17.1006zM250.312 1088.51h78.3027 q57.6016 0 85.502 24.3008q27.9004 24.2998 27.9004 63.9014q0 16.2002 -5.84961 30.6006q-5.85059 14.4004 -18.4512 25.2012q-12.5996 10.7998 -32.4004 17.5498q-19.8008 6.75098 -47.7012 6.75098q-44.1016 0 -73.3525 -18.001t-29.251 -49.501h-166.504 q0 47.7012 21.1504 85.0518q21.1504 37.3516 57.1514 63.002t84.1523 39.1514q48.1514 13.5 102.153 13.5q61.2012 0 112.053 -13.0508q50.8516 -13.0498 87.3027 -38.7002q36.4502 -25.6514 56.251 -63.9023t19.8008 -87.752q0 -52.2021 -31.9512 -91.8027 q-31.9502 -39.6006 -89.5518 -61.2021q65.7012 -18 99.9023 -58.501t34.2012 -106.203q0 -50.4014 -22.0508 -89.1025t-60.752 -65.252t-91.3525 -40.501t-113.853 -13.9502q-50.4014 0 -99.9033 12.1504q-49.501 12.1504 -88.2021 37.8008 q-38.7012 25.6514 -62.5518 66.6025q-23.8506 40.9502 -23.8506 98.5518h166.505q0 -34.2002 31.0508 -58.501t85.0518 -24.3008q57.6016 0 85.0527 25.2002q27.4502 25.2012 27.4502 63.002q0 51.3018 -32.8506 72.002q-32.8506 20.7012 -92.252 20.7012h-78.3027v115.203z " />
<glyph unicode="&#xbf;" d="M761 655q-1 -71 -4.5 -118.5t-17 -84t-41.5 -69.5t-77 -74q-30 -34 -62.5 -70t-59 -74.5t-43.5 -80.5t-17 -88q0 -94 49.5 -142t139.5 -48q37 0 72.5 10t62.5 32t44 56t17 82h240q-2 -93 -35.5 -164t-91.5 -119t-137 -72t-170 -24q-102 0 -181.5 25.5t-135 74.5 t-84.5 121t-29 165q0 70 23.5 131.5t60.5 115.5t83.5 102t91.5 91q30 29 45.5 52.5t22.5 48t8 53.5t1 68h225zM520 963q0 26 7 49t22 40t39 26.5t58 9.5t58.5 -9.5t40 -26.5t23 -40t7.5 -49q0 -25 -7.5 -47t-23 -38t-40 -25.5t-58.5 -9.5t-58 9.5t-39 25.5t-22 38t-7 47z " />
<glyph unicode="&#xc0;" d="M855 338h-455l-100 -338h-248l473 1456h211l464 -1456h-247zM461 543h334l-165 571zM730 1553h-190l-259 273h273z" />
<glyph unicode="&#xc1;" d="M855 338h-455l-100 -338h-248l473 1456h211l464 -1456h-247zM461 543h334l-165 571zM712 1823h274l-277 -273h-182z" />
<glyph unicode="&#xc2;" d="M855 338h-455l-100 -338h-248l473 1456h211l464 -1456h-247zM461 543h334l-165 571zM973 1624v-27h-192l-150 137l-149 -137h-190v29l269 240h140z" />
<glyph unicode="&#xc3;" d="M855 338h-455l-100 -338h-248l473 1456h211l464 -1456h-247zM461 543h334l-165 571zM987 1854q0 -46 -15.5 -88.5t-43.5 -75.5t-67.5 -52.5t-86.5 -19.5q-50 0 -84.5 14t-64.5 31t-60.5 31t-70.5 14q-19 0 -36 -7.5t-30 -21.5t-20.5 -33t-7.5 -42l-125 28q0 45 15.5 88 t43 77t66.5 54.5t87 20.5q41 0 75.5 -14t67 -31t65.5 -31t72 -14q19 0 36.5 7.5t30.5 21t20.5 33t7.5 42.5z" />
<glyph unicode="&#xc4;" d="M855 338h-455l-100 -338h-248l473 1456h211l464 -1456h-247zM461 543h334l-165 571zM274 1715q0 50 33.5 84t92.5 34t92.5 -34t33.5 -84t-33.5 -83.5t-92.5 -33.5t-92.5 33.5t-33.5 83.5zM729 1714q0 50 33 83.5t92 33.5t92.5 -33.5t33.5 -83.5t-33.5 -84t-92.5 -34 t-92 34t-33 84z" />
<glyph unicode="&#xc5;" d="M855 338h-455l-100 -338h-248l473 1456h211l464 -1456h-247zM461 543h334l-165 571zM420 1734q0 43 17 79t45.5 62.5t67 41.5t82.5 15q43 0 81 -15t66 -41.5t44 -62.5t16 -79q0 -44 -16 -79.5t-44 -61.5t-66 -40t-81 -14q-44 0 -82.5 14t-67 40t-45.5 61.5t-17 79.5z M529 1734q0 -22 8 -40.5t22.5 -32t33 -21.5t39.5 -8q42 0 70 28.5t28 73.5q0 46 -28 75t-70 29q-21 0 -39.5 -7.5t-33 -21.5t-22.5 -33t-8 -42z" />
<glyph unicode="&#xc6;" d="M1189 0h-537v340h-260l-106 -340h-249l521 1456h609v-194h-287v-412h256v-194h-256v-463h309v-193zM652 553v614l-193 -614h193z" />
<glyph unicode="&#xc7;" d="M1132 447q-10 -105 -50 -191.5t-106 -148t-155.5 -95t-199.5 -33.5q-133 0 -232 51.5t-165 139.5t-99 206t-34 252v199q1 133 35 251.5t100.5 207t165.5 140t230 51.5q115 0 205 -34t154 -96t102 -151t49 -198h-240q-6 64 -24.5 116.5t-50.5 90t-80.5 57.5t-114.5 20 q-81 0 -136 -37t-89 -99.5t-48.5 -144.5t-14.5 -172v-201q0 -94 14.5 -176.5t47.5 -144.5t88 -98t137 -36q126 0 192 71.5t78 202.5h241zM708 4l-12 -53q28 -5 55 -16.5t48 -32t34 -51t13 -73.5q0 -50 -20.5 -91t-61.5 -70t-101.5 -45t-140.5 -16l-7 136q30 0 55 5 t43.5 15.5t29 27.5t10.5 41q0 45 -35.5 62.5t-115.5 22.5l31 138h175z" />
<glyph unicode="&#xc8;" d="M1002 653h-599v-457h701v-196h-942v1456h935v-198h-694v-411h599v-194zM735 1548h-190l-259 273h273z" />
<glyph unicode="&#xc9;" d="M1002 653h-599v-457h701v-196h-942v1456h935v-198h-694v-411h599v-194zM717 1818h274l-277 -273h-182z" />
<glyph unicode="&#xca;" d="M1002 653h-599v-457h701v-196h-942v1456h935v-198h-694v-411h599v-194zM978 1619v-27h-192l-150 137l-149 -137h-190v29l269 240h140z" />
<glyph unicode="&#xcb;" d="M1002 653h-599v-457h701v-196h-942v1456h935v-198h-694v-411h599v-194zM279 1710q0 50 33.5 84t92.5 34t92.5 -34t33.5 -84t-33.5 -83.5t-92.5 -33.5t-92.5 33.5t-33.5 83.5zM734 1709q0 50 33 83.5t92 33.5t92.5 -33.5t33.5 -83.5t-33.5 -84t-92.5 -34t-92 34t-33 84z " />
<glyph unicode="&#xcc;" d="M181 1456h866v-199h-315v-1059h315v-198h-866v198h308v1059h-308v199zM679 1553h-190l-259 273h273z" />
<glyph unicode="&#xcd;" d="M181 1456h866v-199h-315v-1059h315v-198h-866v198h308v1059h-308v199zM661 1823h274l-277 -273h-182z" />
<glyph unicode="&#xce;" d="M181 1456h866v-199h-315v-1059h315v-198h-866v198h308v1059h-308v199zM922 1624v-27h-192l-150 137l-149 -137h-190v29l269 240h140z" />
<glyph unicode="&#xcf;" d="M181 1456h866v-199h-315v-1059h315v-198h-866v198h308v1059h-308v199zM224 1715q0 50 33.5 84t92.5 34t92.5 -34t33.5 -84t-33.5 -83.5t-92.5 -33.5t-92.5 33.5t-33.5 83.5zM679 1714q0 50 33 83.5t92 33.5t92.5 -33.5t33.5 -83.5t-33.5 -84t-92.5 -34t-92 34t-33 84z " />
<glyph unicode="&#xd0;" horiz-adv-x="1259" d="M167 0v651h-202v170h202v635h356q150 -1 269.5 -50t203 -138t128.5 -212.5t46 -273.5v-110q-1 -150 -46 -273.5t-128 -212t-201 -137.5t-265 -49h-363zM632 651h-221v-458h119q99 1 173 35.5t123.5 97t74 150.5t25.5 196v112q-1 105 -25.5 192t-74.5 150.5t-125.5 99 t-177.5 36.5h-112v-441h221v-170z" />
<glyph unicode="&#xd1;" d="M1091 0h-242l-474 1002l-1 -1002h-243v1456h243l472 -999l2 999h243v-1456zM955 1854q0 -46 -15.5 -88.5t-43.5 -75.5t-67.5 -52.5t-86.5 -19.5q-50 0 -84.5 14t-64.5 31t-60.5 31t-70.5 14q-19 0 -36 -7.5t-30 -21.5t-20.5 -33t-7.5 -42l-125 28q0 45 15.5 88t43 77 t66.5 54.5t87 20.5q41 0 75.5 -14t67 -31t65.5 -31t72 -14q19 0 36.5 7.5t30.5 21t20.5 33t7.5 42.5z" />
<glyph unicode="&#xd2;" d="M1136 634q0 -129 -33 -247.5t-98.5 -209t-164 -144t-230.5 -53.5q-131 0 -228 54t-161.5 144.5t-97 208.5t-32.5 247v186q0 86 14.5 168t43 154.5t71 134t100 105.5t130 69t159.5 25q132 0 230.5 -54t164.5 -144.5t99 -209.5t33 -248v-186zM895 822q-1 82 -15 163 t-47 144.5t-87.5 103t-136.5 39.5q-81 0 -134.5 -39.5t-85 -103.5t-44 -144.5t-13.5 -162.5v-188q1 -82 14 -162.5t44.5 -145t85 -104.5t134.5 -40q82 0 136.5 40t87.5 104t46.5 145t14.5 163v188zM724 1574h-190l-259 273h273z" />
<glyph unicode="&#xd3;" d="M1136 634q0 -129 -33 -247.5t-98.5 -209t-164 -144t-230.5 -53.5q-131 0 -228 54t-161.5 144.5t-97 208.5t-32.5 247v186q0 86 14.5 168t43 154.5t71 134t100 105.5t130 69t159.5 25q132 0 230.5 -54t164.5 -144.5t99 -209.5t33 -248v-186zM895 822q-1 82 -15 163 t-47 144.5t-87.5 103t-136.5 39.5q-81 0 -134.5 -39.5t-85 -103.5t-44 -144.5t-13.5 -162.5v-188q1 -82 14 -162.5t44.5 -145t85 -104.5t134.5 -40q82 0 136.5 40t87.5 104t46.5 145t14.5 163v188zM706 1844h274l-277 -273h-182z" />
<glyph unicode="&#xd4;" d="M1136 634q0 -129 -33 -247.5t-98.5 -209t-164 -144t-230.5 -53.5q-131 0 -228 54t-161.5 144.5t-97 208.5t-32.5 247v186q0 86 14.5 168t43 154.5t71 134t100 105.5t130 69t159.5 25q132 0 230.5 -54t164.5 -144.5t99 -209.5t33 -248v-186zM895 822q-1 82 -15 163 t-47 144.5t-87.5 103t-136.5 39.5q-81 0 -134.5 -39.5t-85 -103.5t-44 -144.5t-13.5 -162.5v-188q1 -82 14 -162.5t44.5 -145t85 -104.5t134.5 -40q82 0 136.5 40t87.5 104t46.5 145t14.5 163v188zM967 1645v-27h-192l-150 137l-149 -137h-190v29l269 240h140z" />
<glyph unicode="&#xd5;" d="M1136 634q0 -129 -33 -247.5t-98.5 -209t-164 -144t-230.5 -53.5q-131 0 -228 54t-161.5 144.5t-97 208.5t-32.5 247v186q0 86 14.5 168t43 154.5t71 134t100 105.5t130 69t159.5 25q132 0 230.5 -54t164.5 -144.5t99 -209.5t33 -248v-186zM895 822q-1 82 -15 163 t-47 144.5t-87.5 103t-136.5 39.5q-81 0 -134.5 -39.5t-85 -103.5t-44 -144.5t-13.5 -162.5v-188q1 -82 14 -162.5t44.5 -145t85 -104.5t134.5 -40q82 0 136.5 40t87.5 104t46.5 145t14.5 163v188zM981 1875q0 -46 -15.5 -88.5t-43.5 -75.5t-67.5 -52.5t-86.5 -19.5 q-50 0 -84.5 14t-64.5 31t-60.5 31t-70.5 14q-19 0 -36 -7.5t-30 -21.5t-20.5 -33t-7.5 -42l-125 28q0 45 15.5 88t43 77t66.5 54.5t87 20.5q41 0 75.5 -14t67 -31t65.5 -31t72 -14q19 0 36.5 7.5t30.5 21t20.5 33t7.5 42.5z" />
<glyph unicode="&#xd6;" d="M1136 634q0 -129 -33 -247.5t-98.5 -209t-164 -144t-230.5 -53.5q-131 0 -228 54t-161.5 144.5t-97 208.5t-32.5 247v186q0 86 14.5 168t43 154.5t71 134t100 105.5t130 69t159.5 25q132 0 230.5 -54t164.5 -144.5t99 -209.5t33 -248v-186zM895 822q-1 82 -15 163 t-47 144.5t-87.5 103t-136.5 39.5q-81 0 -134.5 -39.5t-85 -103.5t-44 -144.5t-13.5 -162.5v-188q1 -82 14 -162.5t44.5 -145t85 -104.5t134.5 -40q82 0 136.5 40t87.5 104t46.5 145t14.5 163v188zM269 1736q0 50 33.5 84t92.5 34t92.5 -34t33.5 -84t-33.5 -83.5 t-92.5 -33.5t-92.5 33.5t-33.5 83.5zM724 1735q0 50 33 83.5t92 33.5t92.5 -33.5t33.5 -83.5t-33.5 -84t-92.5 -34t-92 34t-33 84z" />
<glyph unicode="&#xd7;" d="M167 363l317 323l-317 323l147 148l316 -322l316 322l147 -148l-317 -323l317 -323l-147 -148l-316 322l-316 -322z" />
<glyph unicode="&#xd8;" d="M1134 634q0 -129 -33 -247.5t-98.5 -209t-164 -144t-230.5 -53.5q-88 0 -159.5 24.5t-129.5 68.5l-97 -168h-167l160 277q-63 91 -94.5 207.5t-31.5 244.5v186q0 86 14.5 168t43 154.5t71 134t100 105.5t130 69t159.5 25q91 0 165 -26t134 -73l82 141h168l-146 -253 q62 -90 92.5 -204.5t31.5 -240.5v-186zM330 634q0 -54 5.5 -107.5t18.5 -104.5l441 763q-33 40 -79 63.5t-109 23.5q-81 0 -134.5 -39.5t-85 -103.5t-44 -144.5t-13.5 -162.5v-188zM893 822q-1 52 -6.5 103t-16.5 99l-441 -761q32 -38 75.5 -59.5t103.5 -21.5q82 0 136.5 40 t87.5 104t46.5 145t14.5 163v188z" />
<glyph unicode="&#xd9;" d="M1096 1456l2 -975q-1 -112 -36 -204.5t-98 -158.5t-152.5 -102t-200.5 -36q-108 0 -196 36t-151 101.5t-98 158t-36 205.5l2 975h236l2 -975q1 -67 17 -123t46 -96.5t74.5 -63t103.5 -22.5q60 0 106 22.5t77 63t47 96.5t17 123l2 975h236zM743 1545h-190l-259 273h273z " />
<glyph unicode="&#xda;" d="M1096 1456l2 -975q-1 -112 -36 -204.5t-98 -158.5t-152.5 -102t-200.5 -36q-108 0 -196 36t-151 101.5t-98 158t-36 205.5l2 975h236l2 -975q1 -67 17 -123t46 -96.5t74.5 -63t103.5 -22.5q60 0 106 22.5t77 63t47 96.5t17 123l2 975h236zM725 1815h274l-277 -273h-182z " />
<glyph unicode="&#xdb;" d="M1096 1456l2 -975q-1 -112 -36 -204.5t-98 -158.5t-152.5 -102t-200.5 -36q-108 0 -196 36t-151 101.5t-98 158t-36 205.5l2 975h236l2 -975q1 -67 17 -123t46 -96.5t74.5 -63t103.5 -22.5q60 0 106 22.5t77 63t47 96.5t17 123l2 975h236zM986 1616v-27h-192l-150 137 l-149 -137h-190v29l269 240h140z" />
<glyph unicode="&#xdc;" d="M1096 1456l2 -975q-1 -112 -36 -204.5t-98 -158.5t-152.5 -102t-200.5 -36q-108 0 -196 36t-151 101.5t-98 158t-36 205.5l2 975h236l2 -975q1 -67 17 -123t46 -96.5t74.5 -63t103.5 -22.5q60 0 106 22.5t77 63t47 96.5t17 123l2 975h236zM287 1707q0 50 33.5 84t92.5 34 t92.5 -34t33.5 -84t-33.5 -83.5t-92.5 -33.5t-92.5 33.5t-33.5 83.5zM742 1706q0 50 33 83.5t92 33.5t92.5 -33.5t33.5 -83.5t-33.5 -84t-92.5 -34t-92 34t-33 84z" />
<glyph unicode="&#xdd;" d="M616 760l303 696h268l-454 -933l-2 -523h-233l-2 529l-451 927h268zM700 1823h274l-277 -273h-182z" />
<glyph unicode="&#xde;" d="M389 1456v-281h247q124 0 219.5 -32.5t160.5 -91t98.5 -138.5t33.5 -175t-33.5 -175t-98.5 -138.5t-160.5 -91.5t-219.5 -33h-247v-300h-240v1456h240zM389 983v-491h247q73 0 124.5 20.5t84.5 55t48 78t15 90.5t-15 91.5t-48 79t-84.5 55.5t-124.5 21h-247z" />
<glyph unicode="&#xdf;" d="M401 0h-238v1079q0 117 32.5 207t90 151t137 92.5t172.5 31.5q78 0 147 -21.5t121 -65.5t82.5 -111t30.5 -157q0 -52 -9 -90.5t-22 -68.5t-29 -55t-29 -50t-22 -52.5t-9 -62.5q0 -40 21.5 -74.5t53 -68t69 -68.5t69 -76.5t53 -92t21.5 -113.5q0 -88 -26 -154.5 t-74.5 -111t-117.5 -67t-155 -22.5q-40 0 -83 4.5t-82.5 13t-72 20.5t-52.5 26l49 193q16 -10 40.5 -21.5t54.5 -21.5t63.5 -16.5t67.5 -6.5q38 0 66 11.5t46.5 32.5t27.5 49.5t9 62.5q0 44 -21.5 79.5t-53 68.5t-69 66.5t-69 74t-53 91t-21.5 117.5q0 41 9.5 74t23.5 61 t31 53.5t31 52.5t23.5 57.5t9.5 68.5q0 43 -13.5 76.5t-35.5 56.5t-49.5 34.5t-54.5 11.5q-41 0 -75.5 -18t-60.5 -54t-40.5 -91t-14.5 -129v-1077z" />
<glyph unicode="&#xe0;" d="M845 0q-10 20 -16.5 47t-11.5 58q-25 -26 -56.5 -48.5t-70 -39.5t-83 -27t-95.5 -10q-86 0 -155.5 24.5t-119 68t-76.5 102.5t-27 128q0 174 129.5 266t371.5 92h175v71q0 86 -58 136.5t-164 50.5q-48 0 -84 -11.5t-60 -31.5t-36 -47t-12 -58h-239q0 63 29.5 122.5 t86.5 106t139.5 74.5t188.5 28q96 0 178 -23.5t142 -70t94 -116t34 -162.5v-482q0 -71 10.5 -129.5t30.5 -101.5v-17h-245zM557 173q46 0 86.5 11.5t73 30t56 42.5t37.5 49v203h-152q-146 0 -215.5 -47t-69.5 -134q0 -33 11 -61.5t33.5 -49t57 -32.5t82.5 -12zM709 1231 h-190l-259 273h273z" />
<glyph unicode="&#xe1;" d="M845 0q-10 20 -16.5 47t-11.5 58q-25 -26 -56.5 -48.5t-70 -39.5t-83 -27t-95.5 -10q-86 0 -155.5 24.5t-119 68t-76.5 102.5t-27 128q0 174 129.5 266t371.5 92h175v71q0 86 -58 136.5t-164 50.5q-48 0 -84 -11.5t-60 -31.5t-36 -47t-12 -58h-239q0 63 29.5 122.5 t86.5 106t139.5 74.5t188.5 28q96 0 178 -23.5t142 -70t94 -116t34 -162.5v-482q0 -71 10.5 -129.5t30.5 -101.5v-17h-245zM557 173q46 0 86.5 11.5t73 30t56 42.5t37.5 49v203h-152q-146 0 -215.5 -47t-69.5 -134q0 -33 11 -61.5t33.5 -49t57 -32.5t82.5 -12zM691 1501h274 l-277 -273h-182z" />
<glyph unicode="&#xe2;" d="M845 0q-10 20 -16.5 47t-11.5 58q-25 -26 -56.5 -48.5t-70 -39.5t-83 -27t-95.5 -10q-86 0 -155.5 24.5t-119 68t-76.5 102.5t-27 128q0 174 129.5 266t371.5 92h175v71q0 86 -58 136.5t-164 50.5q-48 0 -84 -11.5t-60 -31.5t-36 -47t-12 -58h-239q0 63 29.5 122.5 t86.5 106t139.5 74.5t188.5 28q96 0 178 -23.5t142 -70t94 -116t34 -162.5v-482q0 -71 10.5 -129.5t30.5 -101.5v-17h-245zM557 173q46 0 86.5 11.5t73 30t56 42.5t37.5 49v203h-152q-146 0 -215.5 -47t-69.5 -134q0 -33 11 -61.5t33.5 -49t57 -32.5t82.5 -12zM952 1302v-27 h-192l-150 137l-149 -137h-190v29l269 240h140z" />
<glyph unicode="&#xe3;" d="M845 0q-10 20 -16.5 47t-11.5 58q-25 -26 -56.5 -48.5t-70 -39.5t-83 -27t-95.5 -10q-86 0 -155.5 24.5t-119 68t-76.5 102.5t-27 128q0 174 129.5 266t371.5 92h175v71q0 86 -58 136.5t-164 50.5q-48 0 -84 -11.5t-60 -31.5t-36 -47t-12 -58h-239q0 63 29.5 122.5 t86.5 106t139.5 74.5t188.5 28q96 0 178 -23.5t142 -70t94 -116t34 -162.5v-482q0 -71 10.5 -129.5t30.5 -101.5v-17h-245zM557 173q46 0 86.5 11.5t73 30t56 42.5t37.5 49v203h-152q-146 0 -215.5 -47t-69.5 -134q0 -33 11 -61.5t33.5 -49t57 -32.5t82.5 -12zM966 1532 q0 -46 -15.5 -88.5t-43.5 -75.5t-67.5 -52.5t-86.5 -19.5q-50 0 -84.5 14t-64.5 31t-60.5 31t-70.5 14q-19 0 -36 -7.5t-30 -21.5t-20.5 -33t-7.5 -42l-125 28q0 45 15.5 88t43 77t66.5 54.5t87 20.5q41 0 75.5 -14t67 -31t65.5 -31t72 -14q19 0 36.5 7.5t30.5 21t20.5 33 t7.5 42.5z" />
<glyph unicode="&#xe4;" d="M845 0q-10 20 -16.5 47t-11.5 58q-25 -26 -56.5 -48.5t-70 -39.5t-83 -27t-95.5 -10q-86 0 -155.5 24.5t-119 68t-76.5 102.5t-27 128q0 174 129.5 266t371.5 92h175v71q0 86 -58 136.5t-164 50.5q-48 0 -84 -11.5t-60 -31.5t-36 -47t-12 -58h-239q0 63 29.5 122.5 t86.5 106t139.5 74.5t188.5 28q96 0 178 -23.5t142 -70t94 -116t34 -162.5v-482q0 -71 10.5 -129.5t30.5 -101.5v-17h-245zM557 173q46 0 86.5 11.5t73 30t56 42.5t37.5 49v203h-152q-146 0 -215.5 -47t-69.5 -134q0 -33 11 -61.5t33.5 -49t57 -32.5t82.5 -12zM254 1393 q0 50 33.5 84t92.5 34t92.5 -34t33.5 -84t-33.5 -83.5t-92.5 -33.5t-92.5 33.5t-33.5 83.5zM709 1392q0 50 33 83.5t92 33.5t92.5 -33.5t33.5 -83.5t-33.5 -84t-92.5 -34t-92 34t-33 84z" />
<glyph unicode="&#xe5;" d="M845 0q-10 20 -16.5 47t-11.5 58q-25 -26 -56.5 -48.5t-70 -39.5t-83 -27t-95.5 -10q-86 0 -155.5 24.5t-119 68t-76.5 102.5t-27 128q0 174 129.5 266t371.5 92h175v71q0 86 -58 136.5t-164 50.5q-48 0 -84 -11.5t-60 -31.5t-36 -47t-12 -58h-239q0 63 29.5 122.5 t86.5 106t139.5 74.5t188.5 28q96 0 178 -23.5t142 -70t94 -116t34 -162.5v-482q0 -71 10.5 -129.5t30.5 -101.5v-17h-245zM557 173q46 0 86.5 11.5t73 30t56 42.5t37.5 49v203h-152q-146 0 -215.5 -47t-69.5 -134q0 -33 11 -61.5t33.5 -49t57 -32.5t82.5 -12zM400 1412 q0 43 17 79t45.5 62.5t67 41.5t82.5 15q43 0 81 -15t66 -41.5t44 -62.5t16 -79q0 -44 -16 -79.5t-44 -61.5t-66 -40t-81 -14q-44 0 -82.5 14t-67 40t-45.5 61.5t-17 79.5zM509 1412q0 -22 8 -40.5t22.5 -32t33 -21.5t39.5 -8q42 0 70 28.5t28 73.5q0 46 -28 75t-70 29 q-21 0 -39.5 -7.5t-33 -21.5t-22.5 -33t-8 -42z" />
<glyph unicode="&#xe6;" d="M882 -20q-96 0 -167 33t-117 96q-18 -26 -42.5 -49.5t-55 -41t-68 -28t-81.5 -10.5q-74 0 -131.5 22t-96.5 62.5t-59 98t-20 128.5q0 169 110 260t323 91h26v131q0 65 -24.5 100.5t-75.5 35.5q-52 0 -81.5 -31.5t-29.5 -95.5l-228 9q0 71 23 128.5t66 98t104.5 62.5 t137.5 22q75 0 135.5 -22t102.5 -65q43 42 100.5 65t129.5 22q77 0 138.5 -27t104.5 -77t66 -121.5t23 -161.5v-243h-476v-85q0 -103 48 -159.5t160 -56.5q36 0 63.5 5.5t50.5 13.5t42.5 18.5t37.5 19.5l51 -168q-16 -12 -42.5 -26t-63 -26t-83 -20t-101.5 -8zM719 642h253 v121q0 31 -8 58t-23 46.5t-37 30.5t-51 11q-38 0 -63.5 -15.5t-41.5 -43.5t-22.5 -65.5t-6.5 -80.5v-62zM406 162q24 0 50 12t47 32v270h-24q-47 0 -84 -15.5t-62.5 -41.5t-39 -60.5t-13.5 -71.5q0 -54 31.5 -89.5t94.5 -35.5z" />
<glyph unicode="&#xe7;" d="M628 170q44 0 85.5 14t73.5 39t50.5 59t17.5 74h226q1 -78 -35.5 -146.5t-99 -119.5t-144.5 -81t-172 -30q-125 0 -219 43t-157 117.5t-94.5 173t-31.5 209.5v36q0 111 31.5 210t94.5 173t157 117.5t218 43.5q98 0 181.5 -30t144 -84t94 -129t32.5 -164h-226 q1 44 -15.5 83t-47.5 68t-73 46t-92 17q-75 0 -125 -30.5t-80 -80t-42.5 -112.5t-12.5 -128v-36q0 -66 12.5 -129t42.5 -112.5t80 -80t126 -30.5zM719 4l-12 -53q28 -5 55 -16.5t48 -32t34 -51t13 -73.5q0 -50 -20.5 -91t-61.5 -70t-101.5 -45t-140.5 -16l-7 136q30 0 55 5 t43.5 15.5t29 27.5t10.5 41q0 45 -35.5 62.5t-115.5 22.5l31 138h175z" />
<glyph unicode="&#xe8;" d="M659 -20q-120 0 -219 40t-169.5 110t-109.5 165.5t-39 206.5v41q0 129 41.5 232t111 176t162 112t194.5 39q118 0 208 -39.5t150.5 -111t91.5 -169.5t31 -215v-101h-750q6 -63 31 -117t65.5 -93.5t95 -62t119.5 -22.5q91 0 167.5 36t124.5 99l130 -122q-26 -39 -67 -75.5 t-96 -65t-123.5 -46t-149.5 -17.5zM630 909q-50 0 -93 -18t-77 -52.5t-57.5 -84t-33.5 -112.5h507v18q-3 48 -18.5 92.5t-45.5 79.5t-75.5 56t-106.5 21zM709 1232h-190l-259 273h273z" />
<glyph unicode="&#xe9;" d="M659 -20q-120 0 -219 40t-169.5 110t-109.5 165.5t-39 206.5v41q0 129 41.5 232t111 176t162 112t194.5 39q118 0 208 -39.5t150.5 -111t91.5 -169.5t31 -215v-101h-750q6 -63 31 -117t65.5 -93.5t95 -62t119.5 -22.5q91 0 167.5 36t124.5 99l130 -122q-26 -39 -67 -75.5 t-96 -65t-123.5 -46t-149.5 -17.5zM630 909q-50 0 -93 -18t-77 -52.5t-57.5 -84t-33.5 -112.5h507v18q-3 48 -18.5 92.5t-45.5 79.5t-75.5 56t-106.5 21zM691 1502h274l-277 -273h-182z" />
<glyph unicode="&#xea;" d="M659 -20q-120 0 -219 40t-169.5 110t-109.5 165.5t-39 206.5v41q0 129 41.5 232t111 176t162 112t194.5 39q118 0 208 -39.5t150.5 -111t91.5 -169.5t31 -215v-101h-750q6 -63 31 -117t65.5 -93.5t95 -62t119.5 -22.5q91 0 167.5 36t124.5 99l130 -122q-26 -39 -67 -75.5 t-96 -65t-123.5 -46t-149.5 -17.5zM630 909q-50 0 -93 -18t-77 -52.5t-57.5 -84t-33.5 -112.5h507v18q-3 48 -18.5 92.5t-45.5 79.5t-75.5 56t-106.5 21zM952 1303v-27h-192l-150 137l-149 -137h-190v29l269 240h140z" />
<glyph unicode="&#xeb;" d="M659 -20q-120 0 -219 40t-169.5 110t-109.5 165.5t-39 206.5v41q0 129 41.5 232t111 176t162 112t194.5 39q118 0 208 -39.5t150.5 -111t91.5 -169.5t31 -215v-101h-750q6 -63 31 -117t65.5 -93.5t95 -62t119.5 -22.5q91 0 167.5 36t124.5 99l130 -122q-26 -39 -67 -75.5 t-96 -65t-123.5 -46t-149.5 -17.5zM630 909q-50 0 -93 -18t-77 -52.5t-57.5 -84t-33.5 -112.5h507v18q-3 48 -18.5 92.5t-45.5 79.5t-75.5 56t-106.5 21zM254 1394q0 50 33.5 84t92.5 34t92.5 -34t33.5 -84t-33.5 -83.5t-92.5 -33.5t-92.5 33.5t-33.5 83.5zM709 1393 q0 50 33 83.5t92 33.5t92.5 -33.5t33.5 -83.5t-33.5 -84t-92.5 -34t-92 34t-33 84z" />
<glyph unicode="&#xec;" d="M199 1082h585v-884h330v-198h-915v198h344v685h-344v199zM766 1205h-190l-259 273h273z" />
<glyph unicode="&#xed;" d="M199 1082h585v-884h330v-198h-915v198h344v685h-344v199zM748 1476h274l-277 -273h-182z" />
<glyph unicode="&#xee;" d="M199 1082h585v-884h330v-198h-915v198h344v685h-344v199zM1009 1276v-27h-192l-150 137l-149 -137h-190v29l269 240h140z" />
<glyph unicode="&#xef;" d="M199 1082h585v-884h330v-198h-915v198h344v685h-344v199zM310 1367q0 50 33.5 84t92.5 34t92.5 -34t33.5 -84t-33.5 -83.5t-92.5 -33.5t-92.5 33.5t-33.5 83.5zM765 1366q0 50 33 83.5t92 33.5t92.5 -33.5t33.5 -83.5t-33.5 -84t-92.5 -34t-92 34t-33 84z" />
<glyph unicode="&#xf0;" d="M877 1275q99 -117 154.5 -276.5t55.5 -357.5v-64q0 -138 -40 -249t-110.5 -188.5t-166.5 -119t-207 -41.5q-113 0 -207 38t-161 104.5t-104 155.5t-37 191q0 114 36 207t100.5 159t155 102.5t199.5 36.5q81 0 151.5 -27.5t125.5 -74.5q-22 92 -60 163.5t-89 125.5 l-257 -144l-78 108l227 128q-70 45 -145 71l74 193q159 -40 285 -144l215 121l78 -109zM847 643v15.5t-1 15.5q-16 22 -42 42.5t-63 36t-84 25t-105 9.5q-60 0 -107.5 -26t-81.5 -70t-52 -101.5t-18 -121.5q0 -57 18 -110.5t53 -95.5t86 -67t117 -25q64 0 115.5 28.5t88 80 t56.5 124t20 161.5v79z" />
<glyph unicode="&#xf1;" d="M371 1082l15 -150q59 81 142.5 125.5t185.5 44.5q83 0 151.5 -24t118 -75t77 -132t27.5 -195v-676h-239v672q0 67 -15.5 112t-44 72t-69.5 38.5t-93 11.5q-79 0 -137.5 -35t-94.5 -95v-776h-240v1082h216zM962 1532q0 -46 -15.5 -88.5t-43.5 -75.5t-67.5 -52.5 t-86.5 -19.5q-50 0 -84.5 14t-64.5 31t-60.5 31t-70.5 14q-19 0 -36 -7.5t-30 -21.5t-20.5 -33t-7.5 -42l-125 28q0 45 15.5 88t43 77t66.5 54.5t87 20.5q41 0 75.5 -14t67 -31t65.5 -31t72 -14q19 0 36.5 7.5t30.5 21t20.5 33t7.5 42.5z" />
<glyph unicode="&#xf2;" d="M111 551q0 117 34.5 218t99 175t157.5 116t211 42q119 0 212.5 -42t158 -116t98.5 -175t34 -218v-21q0 -118 -34 -219t-98.5 -174.5t-157.5 -115.5t-211 -42q-119 0 -212.5 42t-158 115.5t-99 174.5t-34.5 219v21zM350 530q0 -74 15.5 -139t48 -114.5t82.5 -78t119 -28.5 q67 0 116.5 28.5t82 78t48 114.5t15.5 139v21q0 72 -15.5 137t-48 114t-82 78t-118.5 29q-68 0 -118 -29t-82 -78t-47.5 -114t-15.5 -137v-21zM716 1231h-190l-259 273h273z" />
<glyph unicode="&#xf3;" d="M111 551q0 117 34.5 218t99 175t157.5 116t211 42q119 0 212.5 -42t158 -116t98.5 -175t34 -218v-21q0 -118 -34 -219t-98.5 -174.5t-157.5 -115.5t-211 -42q-119 0 -212.5 42t-158 115.5t-99 174.5t-34.5 219v21zM350 530q0 -74 15.5 -139t48 -114.5t82.5 -78t119 -28.5 q67 0 116.5 28.5t82 78t48 114.5t15.5 139v21q0 72 -15.5 137t-48 114t-82 78t-118.5 29q-68 0 -118 -29t-82 -78t-47.5 -114t-15.5 -137v-21zM698 1501h274l-277 -273h-182z" />
<glyph unicode="&#xf4;" d="M111 551q0 117 34.5 218t99 175t157.5 116t211 42q119 0 212.5 -42t158 -116t98.5 -175t34 -218v-21q0 -118 -34 -219t-98.5 -174.5t-157.5 -115.5t-211 -42q-119 0 -212.5 42t-158 115.5t-99 174.5t-34.5 219v21zM350 530q0 -74 15.5 -139t48 -114.5t82.5 -78t119 -28.5 q67 0 116.5 28.5t82 78t48 114.5t15.5 139v21q0 72 -15.5 137t-48 114t-82 78t-118.5 29q-68 0 -118 -29t-82 -78t-47.5 -114t-15.5 -137v-21zM959 1302v-27h-192l-150 137l-149 -137h-190v29l269 240h140z" />
<glyph unicode="&#xf5;" d="M111 551q0 117 34.5 218t99 175t157.5 116t211 42q119 0 212.5 -42t158 -116t98.5 -175t34 -218v-21q0 -118 -34 -219t-98.5 -174.5t-157.5 -115.5t-211 -42q-119 0 -212.5 42t-158 115.5t-99 174.5t-34.5 219v21zM350 530q0 -74 15.5 -139t48 -114.5t82.5 -78t119 -28.5 q67 0 116.5 28.5t82 78t48 114.5t15.5 139v21q0 72 -15.5 137t-48 114t-82 78t-118.5 29q-68 0 -118 -29t-82 -78t-47.5 -114t-15.5 -137v-21zM973 1532q0 -46 -15.5 -88.5t-43.5 -75.5t-67.5 -52.5t-86.5 -19.5q-50 0 -84.5 14t-64.5 31t-60.5 31t-70.5 14q-19 0 -36 -7.5 t-30 -21.5t-20.5 -33t-7.5 -42l-125 28q0 45 15.5 88t43 77t66.5 54.5t87 20.5q41 0 75.5 -14t67 -31t65.5 -31t72 -14q19 0 36.5 7.5t30.5 21t20.5 33t7.5 42.5z" />
<glyph unicode="&#xf6;" d="M111 551q0 117 34.5 218t99 175t157.5 116t211 42q119 0 212.5 -42t158 -116t98.5 -175t34 -218v-21q0 -118 -34 -219t-98.5 -174.5t-157.5 -115.5t-211 -42q-119 0 -212.5 42t-158 115.5t-99 174.5t-34.5 219v21zM350 530q0 -74 15.5 -139t48 -114.5t82.5 -78t119 -28.5 q67 0 116.5 28.5t82 78t48 114.5t15.5 139v21q0 72 -15.5 137t-48 114t-82 78t-118.5 29q-68 0 -118 -29t-82 -78t-47.5 -114t-15.5 -137v-21zM261 1393q0 50 33.5 84t92.5 34t92.5 -34t33.5 -84t-33.5 -83.5t-92.5 -33.5t-92.5 33.5t-33.5 83.5zM716 1392q0 50 33 83.5 t92 33.5t92.5 -33.5t33.5 -83.5t-33.5 -84t-92.5 -34t-92 34t-33 84z" />
<glyph unicode="&#xf7;" d="M1122 583h-1011v211h1011v-211zM482 1094q0 27 9 50t26 40t42 26.5t57 9.5t57 -9.5t42 -26.5t26 -40t9 -50q0 -54 -35 -89.5t-99 -35.5t-99 35.5t-35 89.5zM480 279q0 54 35 90.5t99 36.5t99 -36.5t35 -90.5t-35 -89.5t-99 -35.5t-99 35.5t-35 89.5z" />
<glyph unicode="&#xf8;" d="M111 551q0 117 34.5 218t99 175t157.5 116t211 42q107 0 198 -37l72 147h144l-104 -211q94 -75 143.5 -191t49.5 -259v-21q0 -118 -34 -219t-98.5 -174.5t-157.5 -115.5t-211 -42q-98 0 -180 29l-71 -146h-144l101 205q-102 73 -156 193t-54 270v21zM350 530 q0 -78 17 -145t52 -117l303 617q-23 11 -50.5 17.5t-58.5 6.5q-68 0 -118 -29t-82 -78t-47.5 -114t-15.5 -137v-21zM877 551q0 69 -14 130.5t-43 109.5l-297 -605q39 -16 92 -16q67 0 116.5 28.5t82 78t48 114.5t15.5 139v21z" />
<glyph unicode="&#xf9;" d="M849 148q-55 -80 -133.5 -124.5t-175.5 -44.5q-84 0 -153.5 26t-119 82.5t-77 144t-27.5 210.5v640h239v-642q0 -78 11.5 -129t35.5 -81t60 -42.5t86 -12.5q96 0 155 37.5t89 101.5v768h240v-1082h-216zM718 1210h-190l-259 273h273z" />
<glyph unicode="&#xfa;" d="M849 148q-55 -80 -133.5 -124.5t-175.5 -44.5q-84 0 -153.5 26t-119 82.5t-77 144t-27.5 210.5v640h239v-642q0 -78 11.5 -129t35.5 -81t60 -42.5t86 -12.5q96 0 155 37.5t89 101.5v768h240v-1082h-216zM700 1480h274l-277 -273h-182z" />
<glyph unicode="&#xfb;" d="M849 148q-55 -80 -133.5 -124.5t-175.5 -44.5q-84 0 -153.5 26t-119 82.5t-77 144t-27.5 210.5v640h239v-642q0 -78 11.5 -129t35.5 -81t60 -42.5t86 -12.5q96 0 155 37.5t89 101.5v768h240v-1082h-216zM961 1281v-27h-192l-150 137l-149 -137h-190v29l269 240h140z" />
<glyph unicode="&#xfc;" d="M849 148q-55 -80 -133.5 -124.5t-175.5 -44.5q-84 0 -153.5 26t-119 82.5t-77 144t-27.5 210.5v640h239v-642q0 -78 11.5 -129t35.5 -81t60 -42.5t86 -12.5q96 0 155 37.5t89 101.5v768h240v-1082h-216zM263 1372q0 50 33.5 84t92.5 34t92.5 -34t33.5 -84t-33.5 -83.5 t-92.5 -33.5t-92.5 33.5t-33.5 83.5zM718 1371q0 50 33 83.5t92 33.5t92.5 -33.5t33.5 -83.5t-33.5 -84t-92.5 -34t-92 34t-33 84z" />
<glyph unicode="&#xfd;" d="M584 433l41 -130l304 779h265l-548 -1246q-18 -41 -47 -88.5t-71.5 -88.5t-101.5 -68.5t-138 -27.5q-33 0 -66.5 5.5t-59.5 12.5l34 186q7 0 19 -0.5t25 -1.5t24.5 -1.5t18.5 -0.5q35 0 62.5 20.5t48.5 47t34.5 52t19.5 34.5l71 134l-460 1031h264zM721 1480h274 l-277 -273h-182z" />
<glyph unicode="&#xfe;" d="M1102 530q0 -118 -27.5 -219t-81 -174.5t-132 -115t-180.5 -41.5q-93 0 -163.5 30t-122.5 87v-513h-239v1967h239v-569q52 58 122 89t162 31q103 0 182 -40t132.5 -112.5t81 -174t27.5 -224.5v-21zM863 551q0 73 -14.5 137.5t-45 113t-78.5 76.5t-114 28 q-81 0 -133 -34.5t-83 -91.5v-481q30 -57 82 -92.5t136 -35.5q66 0 113.5 29t78 78t44.5 114t14 138v21z" />
<glyph unicode="&#xff;" d="M584 433l41 -130l304 779h265l-548 -1246q-18 -41 -47 -88.5t-71.5 -88.5t-101.5 -68.5t-138 -27.5q-33 0 -66.5 5.5t-59.5 12.5l34 186q7 0 19 -0.5t25 -1.5t24.5 -1.5t18.5 -0.5q35 0 62.5 20.5t48.5 47t34.5 52t19.5 34.5l71 134l-460 1031h264zM283 1372 q0 50 33.5 84t92.5 34t92.5 -34t33.5 -84t-33.5 -83.5t-92.5 -33.5t-92.5 33.5t-33.5 83.5zM738 1371q0 50 33 83.5t92 33.5t92.5 -33.5t33.5 -83.5t-33.5 -84t-92.5 -34t-92 34t-33 84z" />
<glyph unicode="&#x100;" d="M855 338h-455l-100 -338h-248l473 1456h211l464 -1456h-247zM461 543h334l-165 571zM998 1625h-726v157h726v-157z" />
<glyph unicode="&#x101;" d="M845 0q-10 20 -16.5 47t-11.5 58q-25 -26 -56.5 -48.5t-70 -39.5t-83 -27t-95.5 -10q-86 0 -155.5 24.5t-119 68t-76.5 102.5t-27 128q0 174 129.5 266t371.5 92h175v71q0 86 -58 136.5t-164 50.5q-48 0 -84 -11.5t-60 -31.5t-36 -47t-12 -58h-239q0 63 29.5 122.5 t86.5 106t139.5 74.5t188.5 28q96 0 178 -23.5t142 -70t94 -116t34 -162.5v-482q0 -71 10.5 -129.5t30.5 -101.5v-17h-245zM557 173q46 0 86.5 11.5t73 30t56 42.5t37.5 49v203h-152q-146 0 -215.5 -47t-69.5 -134q0 -33 11 -61.5t33.5 -49t57 -32.5t82.5 -12zM978 1303 h-726v157h726v-157z" />
<glyph unicode="&#x102;" d="M855 338h-455l-100 -338h-248l473 1456h211l464 -1456h-247zM461 543h334l-165 571zM953 1864q0 -62 -22.5 -114t-64 -89t-101 -57.5t-133.5 -20.5t-133.5 20.5t-101 57.5t-64 89t-22.5 114h180q0 -28 7.5 -53t24.5 -44.5t43.5 -31t65.5 -11.5q38 0 65 11.5t43.5 31 t24 44.5t7.5 53h181z" />
<glyph unicode="&#x103;" d="M845 0q-10 20 -16.5 47t-11.5 58q-25 -26 -56.5 -48.5t-70 -39.5t-83 -27t-95.5 -10q-86 0 -155.5 24.5t-119 68t-76.5 102.5t-27 128q0 174 129.5 266t371.5 92h175v71q0 86 -58 136.5t-164 50.5q-48 0 -84 -11.5t-60 -31.5t-36 -47t-12 -58h-239q0 63 29.5 122.5 t86.5 106t139.5 74.5t188.5 28q96 0 178 -23.5t142 -70t94 -116t34 -162.5v-482q0 -71 10.5 -129.5t30.5 -101.5v-17h-245zM557 173q46 0 86.5 11.5t73 30t56 42.5t37.5 49v203h-152q-146 0 -215.5 -47t-69.5 -134q0 -33 11 -61.5t33.5 -49t57 -32.5t82.5 -12zM933 1542 q0 -62 -22.5 -114t-64 -89t-101 -57.5t-133.5 -20.5t-133.5 20.5t-101 57.5t-64 89t-22.5 114h180q0 -28 7.5 -53t24.5 -44.5t43.5 -31t65.5 -11.5q38 0 65 11.5t43.5 31t24 44.5t7.5 53h181z" />
<glyph unicode="&#x104;" d="M736 1456l464 -1456h-61q-85 -39 -124 -88t-39 -109q0 -31 16 -51t56 -20q31 0 53.5 8t37.5 15l40 -141q-28 -15 -72 -29.5t-113 -14.5q-44 0 -82 13t-66.5 38t-45 62.5t-16.5 86.5q0 66 42 132.5t121 118.5l-92 317h-455l-100 -338h-248l473 1456h211zM461 543h334 l-165 571z" />
<glyph unicode="&#x105;" d="M840 12q-15 38 -23 93q-25 -26 -56.5 -48.5t-70 -39.5t-83 -27t-95.5 -10q-86 0 -155.5 24.5t-119 68t-76.5 102.5t-27 128q0 174 129.5 266t371.5 92h175v71q0 86 -58 136.5t-164 50.5q-48 0 -84 -11.5t-60 -31.5t-36 -47t-12 -58h-239q0 63 29.5 122.5t86.5 106 t139.5 74.5t188.5 28q96 0 178 -23.5t142 -70t94 -116t34 -162.5v-482q0 -71 10.5 -129.5t30.5 -101.5v-17h-45q-85 -39 -124 -88t-39 -109q0 -31 16 -51t56 -20q31 0 53.5 8t37.5 15l40 -141q-28 -15 -72 -29.5t-113 -14.5q-44 0 -82 13t-66.5 38t-45 62.5t-16.5 86.5 q0 63 38.5 127t111.5 115zM557 173q46 0 86.5 11.5t73 30t56 42.5t37.5 49v203h-152q-146 0 -215.5 -47t-69.5 -134q0 -33 11 -61.5t33.5 -49t57 -32.5t82.5 -12z" />
<glyph unicode="&#x106;" d="M1132 447q-10 -105 -50 -191.5t-106 -148t-155.5 -95t-199.5 -33.5q-133 0 -232 51.5t-165 139.5t-99 206t-34 252v199q1 133 35 251.5t100.5 207t165.5 140t230 51.5q115 0 205 -34t154 -96t102 -151t49 -198h-240q-6 64 -24.5 116.5t-50.5 90t-80.5 57.5t-114.5 20 q-81 0 -136 -37t-89 -99.5t-48.5 -144.5t-14.5 -172v-201q0 -94 14.5 -176.5t47.5 -144.5t88 -98t137 -36q126 0 192 71.5t78 202.5h241zM758 1833h274l-277 -273h-182z" />
<glyph unicode="&#x107;" d="M628 170q44 0 85.5 14t73.5 39t50.5 59t17.5 74h226q1 -78 -35.5 -146.5t-99 -119.5t-144.5 -81t-172 -30q-125 0 -219 43t-157 117.5t-94.5 173t-31.5 209.5v36q0 111 31.5 210t94.5 173t157 117.5t218 43.5q98 0 181.5 -30t144 -84t94 -129t32.5 -164h-226 q1 44 -15.5 83t-47.5 68t-73 46t-92 17q-75 0 -125 -30.5t-80 -80t-42.5 -112.5t-12.5 -128v-36q0 -66 12.5 -129t42.5 -112.5t80 -80t126 -30.5zM717 1501h274l-277 -273h-182z" />
<glyph unicode="&#x108;" d="M1132 447q-10 -105 -50 -191.5t-106 -148t-155.5 -95t-199.5 -33.5q-133 0 -232 51.5t-165 139.5t-99 206t-34 252v199q1 133 35 251.5t100.5 207t165.5 140t230 51.5q115 0 205 -34t154 -96t102 -151t49 -198h-240q-6 64 -24.5 116.5t-50.5 90t-80.5 57.5t-114.5 20 q-81 0 -136 -37t-89 -99.5t-48.5 -144.5t-14.5 -172v-201q0 -94 14.5 -176.5t47.5 -144.5t88 -98t137 -36q126 0 192 71.5t78 202.5h241zM1019 1634v-27h-192l-150 137l-149 -137h-190v29l269 240h140z" />
<glyph unicode="&#x109;" d="M628 170q44 0 85.5 14t73.5 39t50.5 59t17.5 74h226q1 -78 -35.5 -146.5t-99 -119.5t-144.5 -81t-172 -30q-125 0 -219 43t-157 117.5t-94.5 173t-31.5 209.5v36q0 111 31.5 210t94.5 173t157 117.5t218 43.5q98 0 181.5 -30t144 -84t94 -129t32.5 -164h-226 q1 44 -15.5 83t-47.5 68t-73 46t-92 17q-75 0 -125 -30.5t-80 -80t-42.5 -112.5t-12.5 -128v-36q0 -66 12.5 -129t42.5 -112.5t80 -80t126 -30.5zM978 1302v-27h-192l-150 137l-149 -137h-190v29l269 240h140z" />
<glyph unicode="&#x10a;" d="M1132 447q-10 -105 -50 -191.5t-106 -148t-155.5 -95t-199.5 -33.5q-133 0 -232 51.5t-165 139.5t-99 206t-34 252v199q1 133 35 251.5t100.5 207t165.5 140t230 51.5q115 0 205 -34t154 -96t102 -151t49 -198h-240q-6 64 -24.5 116.5t-50.5 90t-80.5 57.5t-114.5 20 q-81 0 -136 -37t-89 -99.5t-48.5 -144.5t-14.5 -172v-201q0 -94 14.5 -176.5t47.5 -144.5t88 -98t137 -36q126 0 192 71.5t78 202.5h241zM540 1726q0 55 35 91.5t100 36.5q66 0 101 -36.5t35 -91.5q0 -54 -35 -90.5t-101 -36.5q-65 0 -100 36.5t-35 90.5z" />
<glyph unicode="&#x10b;" d="M628 170q44 0 85.5 14t73.5 39t50.5 59t17.5 74h226q1 -78 -35.5 -146.5t-99 -119.5t-144.5 -81t-172 -30q-125 0 -219 43t-157 117.5t-94.5 173t-31.5 209.5v36q0 111 31.5 210t94.5 173t157 117.5t218 43.5q98 0 181.5 -30t144 -84t94 -129t32.5 -164h-226 q1 44 -15.5 83t-47.5 68t-73 46t-92 17q-75 0 -125 -30.5t-80 -80t-42.5 -112.5t-12.5 -128v-36q0 -66 12.5 -129t42.5 -112.5t80 -80t126 -30.5zM499 1394q0 55 35 91.5t100 36.5q66 0 101 -36.5t35 -91.5q0 -54 -35 -90.5t-101 -36.5q-65 0 -100 36.5t-35 90.5z" />
<glyph unicode="&#x10c;" d="M1132 447q-10 -105 -50 -191.5t-106 -148t-155.5 -95t-199.5 -33.5q-133 0 -232 51.5t-165 139.5t-99 206t-34 252v199q1 133 35 251.5t100.5 207t165.5 140t230 51.5q115 0 205 -34t154 -96t102 -151t49 -198h-240q-6 64 -24.5 116.5t-50.5 90t-80.5 57.5t-114.5 20 q-81 0 -136 -37t-89 -99.5t-48.5 -144.5t-14.5 -172v-201q0 -94 14.5 -176.5t47.5 -144.5t88 -98t137 -36q126 0 192 71.5t78 202.5h241zM676 1740l146 136h205v-18l-277 -251h-148l-275 249v20h203z" />
<glyph unicode="&#x10d;" d="M628 170q44 0 85.5 14t73.5 39t50.5 59t17.5 74h226q1 -78 -35.5 -146.5t-99 -119.5t-144.5 -81t-172 -30q-125 0 -219 43t-157 117.5t-94.5 173t-31.5 209.5v36q0 111 31.5 210t94.5 173t157 117.5t218 43.5q98 0 181.5 -30t144 -84t94 -129t32.5 -164h-226 q1 44 -15.5 83t-47.5 68t-73 46t-92 17q-75 0 -125 -30.5t-80 -80t-42.5 -112.5t-12.5 -128v-36q0 -66 12.5 -129t42.5 -112.5t80 -80t126 -30.5zM635 1408l146 136h205v-18l-277 -251h-148l-275 249v20h203z" />
<glyph unicode="&#x10e;" d="M137 0v1456h356q150 -1 269.5 -50t203 -138t128.5 -212.5t46 -273.5v-110q-1 -150 -46 -273.5t-128 -212t-201 -137.5t-265 -49h-363zM381 1262v-1069h119q99 1 173 35.5t123.5 97t74 150.5t25.5 196v112q-1 105 -25.5 192t-74.5 150.5t-125.5 99t-177.5 36.5h-112z M557 1725l146 136h205v-18l-277 -251h-148l-275 249v20h203z" />
<glyph unicode="&#x10f;" horiz-adv-x="1379" d="M123 549q0 123 30 225t86 175t135.5 113t178.5 40q89 0 157 -30.5t119 -87.5v552h240v-1536h-217l-12 110q-51 -63 -122.5 -96.5t-166.5 -33.5q-98 0 -177 41.5t-134.5 114.5t-86 173.5t-30.5 218.5v21zM362 528q0 -73 14 -137t44.5 -112t78 -75.5t113.5 -27.5 q82 0 134 35.5t83 95.5v470q-31 59 -83.5 94t-131.5 35q-67 0 -114.5 -28t-78 -77t-45 -114t-14.5 -138v-21zM1549 1398q0 -50 -13 -103.5t-37 -105t-58 -98.5t-75 -83l-117 78q43 69 67 143.5t24 167.5v163h209v-162z" />
<glyph unicode="&#x110;" horiz-adv-x="1259" d="M167 0v651h-202v170h202v635h356q150 -1 269.5 -50t203 -138t128.5 -212.5t46 -273.5v-110q-1 -150 -46 -273.5t-128 -212t-201 -137.5t-265 -49h-363zM632 651h-221v-458h119q99 1 173 35.5t123.5 97t74 150.5t25.5 196v112q-1 105 -25.5 192t-74.5 150.5t-125.5 99 t-177.5 36.5h-112v-441h221v-170z" />
<glyph unicode="&#x111;" horiz-adv-x="1259" d="M1252 1224h-183v-1224h-217l-12 110q-51 -63 -122.5 -96.5t-166.5 -33.5q-98 0 -177 41.5t-134.5 114.5t-86 173.5t-30.5 218.5v21q0 123 30 225t86 175t135.5 113t178.5 40q89 0 157 -30.5t119 -87.5v240h-244v170h244v142h240v-142h183v-170zM362 528q0 -73 14 -137 t44.5 -112t78 -75.5t113.5 -27.5q82 0 134 35.5t83 95.5v470q-31 59 -83.5 94t-131.5 35q-67 0 -114.5 -28t-78 -77t-45 -114t-14.5 -138v-21z" />
<glyph unicode="&#x112;" d="M1002 653h-599v-457h701v-196h-942v1456h935v-198h-694v-411h599v-194zM1003 1620h-726v157h726v-157z" />
<glyph unicode="&#x113;" d="M659 -20q-120 0 -219 40t-169.5 110t-109.5 165.5t-39 206.5v41q0 129 41.5 232t111 176t162 112t194.5 39q118 0 208 -39.5t150.5 -111t91.5 -169.5t31 -215v-101h-750q6 -63 31 -117t65.5 -93.5t95 -62t119.5 -22.5q91 0 167.5 36t124.5 99l130 -122q-26 -39 -67 -75.5 t-96 -65t-123.5 -46t-149.5 -17.5zM630 909q-50 0 -93 -18t-77 -52.5t-57.5 -84t-33.5 -112.5h507v18q-3 48 -18.5 92.5t-45.5 79.5t-75.5 56t-106.5 21zM978 1304h-726v157h726v-157z" />
<glyph unicode="&#x114;" d="M1002 653h-599v-457h701v-196h-942v1456h935v-198h-694v-411h599v-194zM958 1859q0 -62 -22.5 -114t-64 -89t-101 -57.5t-133.5 -20.5t-133.5 20.5t-101 57.5t-64 89t-22.5 114h180q0 -28 7.5 -53t24.5 -44.5t43.5 -31t65.5 -11.5q38 0 65 11.5t43.5 31t24 44.5t7.5 53 h181z" />
<glyph unicode="&#x115;" d="M659 -20q-120 0 -219 40t-169.5 110t-109.5 165.5t-39 206.5v41q0 129 41.5 232t111 176t162 112t194.5 39q118 0 208 -39.5t150.5 -111t91.5 -169.5t31 -215v-101h-750q6 -63 31 -117t65.5 -93.5t95 -62t119.5 -22.5q91 0 167.5 36t124.5 99l130 -122q-26 -39 -67 -75.5 t-96 -65t-123.5 -46t-149.5 -17.5zM630 909q-50 0 -93 -18t-77 -52.5t-57.5 -84t-33.5 -112.5h507v18q-3 48 -18.5 92.5t-45.5 79.5t-75.5 56t-106.5 21zM933 1543q0 -62 -22.5 -114t-64 -89t-101 -57.5t-133.5 -20.5t-133.5 20.5t-101 57.5t-64 89t-22.5 114h180 q0 -28 7.5 -53t24.5 -44.5t43.5 -31t65.5 -11.5q38 0 65 11.5t43.5 31t24 44.5t7.5 53h181z" />
<glyph unicode="&#x116;" d="M1002 653h-599v-457h701v-196h-942v1456h935v-198h-694v-411h599v-194zM499 1711q0 55 35 91.5t100 36.5q66 0 101 -36.5t35 -91.5q0 -54 -35 -90.5t-101 -36.5q-65 0 -100 36.5t-35 90.5z" />
<glyph unicode="&#x117;" d="M659 -20q-120 0 -219 40t-169.5 110t-109.5 165.5t-39 206.5v41q0 129 41.5 232t111 176t162 112t194.5 39q118 0 208 -39.5t150.5 -111t91.5 -169.5t31 -215v-101h-750q6 -63 31 -117t65.5 -93.5t95 -62t119.5 -22.5q91 0 167.5 36t124.5 99l130 -122q-26 -39 -67 -75.5 t-96 -65t-123.5 -46t-149.5 -17.5zM630 909q-50 0 -93 -18t-77 -52.5t-57.5 -84t-33.5 -112.5h507v18q-3 48 -18.5 92.5t-45.5 79.5t-75.5 56t-106.5 21zM474 1395q0 55 35 91.5t100 36.5q66 0 101 -36.5t35 -91.5q0 -54 -35 -90.5t-101 -36.5q-65 0 -100 36.5t-35 90.5z " />
<glyph unicode="&#x118;" d="M1002 653h-599v-457h701v-196h-102q-85 -39 -124 -88t-39 -109q0 -31 16 -51t56 -20q31 0 53.5 8t37.5 15l40 -141q-28 -15 -72 -29.5t-113 -14.5q-44 0 -82 13t-66.5 38t-45 62.5t-16.5 86.5q0 60 34 119.5t99 110.5h-618v1456h935v-198h-694v-411h599v-194z" />
<glyph unicode="&#x119;" d="M1095 184q-32 -48 -86.5 -92t-130.5 -73q-85 -39 -124 -88t-39 -109q0 -31 16 -51t56 -20q31 0 53.5 8t37.5 15l40 -141q-28 -15 -72 -29.5t-113 -14.5q-44 0 -82 13t-66.5 38t-45 62.5t-16.5 86.5t23 98.5t68 94.5q-111 7 -201.5 49.5t-155 111.5t-100 161t-35.5 198v41 q0 129 41.5 232t111 176t162 112t194.5 39q118 0 208 -39.5t150.5 -111t91.5 -169.5t31 -215v-101h-750q6 -63 31 -117t65.5 -93.5t95 -62t119.5 -22.5q91 0 167.5 36t124.5 99zM630 909q-50 0 -93 -18t-77 -52.5t-57.5 -84t-33.5 -112.5h507v18q-3 48 -18.5 92.5 t-45.5 79.5t-75.5 56t-106.5 21z" />
<glyph unicode="&#x11a;" d="M1002 653h-599v-457h701v-196h-942v1456h935v-198h-694v-411h599v-194zM635 1725l146 136h205v-18l-277 -251h-148l-275 249v20h203z" />
<glyph unicode="&#x11b;" d="M659 -20q-120 0 -219 40t-169.5 110t-109.5 165.5t-39 206.5v41q0 129 41.5 232t111 176t162 112t194.5 39q118 0 208 -39.5t150.5 -111t91.5 -169.5t31 -215v-101h-750q6 -63 31 -117t65.5 -93.5t95 -62t119.5 -22.5q91 0 167.5 36t124.5 99l130 -122q-26 -39 -67 -75.5 t-96 -65t-123.5 -46t-149.5 -17.5zM630 909q-50 0 -93 -18t-77 -52.5t-57.5 -84t-33.5 -112.5h507v18q-3 48 -18.5 92.5t-45.5 79.5t-75.5 56t-106.5 21zM610 1409l146 136h205v-18l-277 -251h-148l-275 249v20h203z" />
<glyph unicode="&#x11c;" d="M1126 182q-37 -44 -87 -81t-112 -64t-134.5 -42t-154.5 -15q-131 0 -232 51t-170.5 139.5t-106 208.5t-37.5 258v180q0 138 36 258t103.5 209t165.5 140.5t224 51.5q113 0 202 -31t153 -89.5t101.5 -142.5t47.5 -188h-236q-9 59 -28 106t-51 80t-77.5 50.5t-107.5 17.5 q-76 0 -130.5 -37.5t-90.5 -101t-53 -147t-18 -174.5v-182q1 -91 18.5 -174t55 -146.5t96.5 -101.5t142 -39q34 0 70 4.5t68.5 14.5t59.5 25.5t44 38.5l2 291h-263v187h498zM989 1634v-27h-192l-150 137l-149 -137h-190v29l269 240h140z" />
<glyph unicode="&#x11d;" d="M124 549q0 123 30.5 225t87.5 175t137.5 113t180.5 40q97 0 168 -33t122 -95l10 108h217v-1053q0 -109 -36 -193.5t-100.5 -142.5t-154.5 -88.5t-198 -30.5q-44 0 -99.5 9.5t-111.5 31t-107 56t-87 83.5l114 143q61 -72 131.5 -103t145.5 -31q60 0 109 17t83 50 t52.5 81.5t18.5 111.5v73q-51 -56 -119.5 -86t-159.5 -30q-99 0 -179 41.5t-137 114.5t-87.5 173.5t-30.5 218.5v21zM364 528q0 -73 15 -137t46 -112t79.5 -75.5t114.5 -27.5q83 0 135 34.5t83 92.5v478q-32 57 -84 91t-132 34q-66 0 -114.5 -28t-80 -77t-47 -114 t-15.5 -138v-21zM941 1302v-27h-192l-150 137l-149 -137h-190v29l269 240h140z" />
<glyph unicode="&#x11e;" d="M1126 182q-37 -44 -87 -81t-112 -64t-134.5 -42t-154.5 -15q-131 0 -232 51t-170.5 139.5t-106 208.5t-37.5 258v180q0 138 36 258t103.5 209t165.5 140.5t224 51.5q113 0 202 -31t153 -89.5t101.5 -142.5t47.5 -188h-236q-9 59 -28 106t-51 80t-77.5 50.5t-107.5 17.5 q-76 0 -130.5 -37.5t-90.5 -101t-53 -147t-18 -174.5v-182q1 -91 18.5 -174t55 -146.5t96.5 -101.5t142 -39q34 0 70 4.5t68.5 14.5t59.5 25.5t44 38.5l2 291h-263v187h498zM969 1874q0 -62 -22.5 -114t-64 -89t-101 -57.5t-133.5 -20.5t-133.5 20.5t-101 57.5t-64 89 t-22.5 114h180q0 -28 7.5 -53t24.5 -44.5t43.5 -31t65.5 -11.5q38 0 65 11.5t43.5 31t24 44.5t7.5 53h181z" />
<glyph unicode="&#x11f;" d="M124 549q0 123 30.5 225t87.5 175t137.5 113t180.5 40q97 0 168 -33t122 -95l10 108h217v-1053q0 -109 -36 -193.5t-100.5 -142.5t-154.5 -88.5t-198 -30.5q-44 0 -99.5 9.5t-111.5 31t-107 56t-87 83.5l114 143q61 -72 131.5 -103t145.5 -31q60 0 109 17t83 50 t52.5 81.5t18.5 111.5v73q-51 -56 -119.5 -86t-159.5 -30q-99 0 -179 41.5t-137 114.5t-87.5 173.5t-30.5 218.5v21zM364 528q0 -73 15 -137t46 -112t79.5 -75.5t114.5 -27.5q83 0 135 34.5t83 92.5v478q-32 57 -84 91t-132 34q-66 0 -114.5 -28t-80 -77t-47 -114 t-15.5 -138v-21zM922 1542q0 -62 -22.5 -114t-64 -89t-101 -57.5t-133.5 -20.5t-133.5 20.5t-101 57.5t-64 89t-22.5 114h180q0 -28 7.5 -53t24.5 -44.5t43.5 -31t65.5 -11.5q38 0 65 11.5t43.5 31t24 44.5t7.5 53h181z" />
<glyph unicode="&#x120;" d="M1126 182q-37 -44 -87 -81t-112 -64t-134.5 -42t-154.5 -15q-131 0 -232 51t-170.5 139.5t-106 208.5t-37.5 258v180q0 138 36 258t103.5 209t165.5 140.5t224 51.5q113 0 202 -31t153 -89.5t101.5 -142.5t47.5 -188h-236q-9 59 -28 106t-51 80t-77.5 50.5t-107.5 17.5 q-76 0 -130.5 -37.5t-90.5 -101t-53 -147t-18 -174.5v-182q1 -91 18.5 -174t55 -146.5t96.5 -101.5t142 -39q34 0 70 4.5t68.5 14.5t59.5 25.5t44 38.5l2 291h-263v187h498zM510 1726q0 55 35 91.5t100 36.5q66 0 101 -36.5t35 -91.5q0 -54 -35 -90.5t-101 -36.5 q-65 0 -100 36.5t-35 90.5z" />
<glyph unicode="&#x121;" d="M124 549q0 123 30.5 225t87.5 175t137.5 113t180.5 40q97 0 168 -33t122 -95l10 108h217v-1053q0 -109 -36 -193.5t-100.5 -142.5t-154.5 -88.5t-198 -30.5q-44 0 -99.5 9.5t-111.5 31t-107 56t-87 83.5l114 143q61 -72 131.5 -103t145.5 -31q60 0 109 17t83 50 t52.5 81.5t18.5 111.5v73q-51 -56 -119.5 -86t-159.5 -30q-99 0 -179 41.5t-137 114.5t-87.5 173.5t-30.5 218.5v21zM364 528q0 -73 15 -137t46 -112t79.5 -75.5t114.5 -27.5q83 0 135 34.5t83 92.5v478q-32 57 -84 91t-132 34q-66 0 -114.5 -28t-80 -77t-47 -114 t-15.5 -138v-21zM463 1394q0 55 35 91.5t100 36.5q66 0 101 -36.5t35 -91.5q0 -54 -35 -90.5t-101 -36.5q-65 0 -100 36.5t-35 90.5z" />
<glyph unicode="&#x122;" d="M1126 182q-37 -44 -87 -81t-112 -64t-134.5 -42t-154.5 -15q-131 0 -232 51t-170.5 139.5t-106 208.5t-37.5 258v180q0 138 36 258t103.5 209t165.5 140.5t224 51.5q113 0 202 -31t153 -89.5t101.5 -142.5t47.5 -188h-236q-9 59 -28 106t-51 80t-77.5 50.5t-107.5 17.5 q-76 0 -130.5 -37.5t-90.5 -101t-53 -147t-18 -174.5v-182q1 -91 18.5 -174t55 -146.5t96.5 -101.5t142 -39q34 0 70 4.5t68.5 14.5t59.5 25.5t44 38.5l2 291h-263v187h498zM751 -136q0 -43 -9.5 -90.5t-28 -94t-47 -89t-67.5 -75.5l-113 76q38 63 56.5 128.5t18.5 141.5v72 h190v-69z" />
<glyph unicode="&#x123;" d="M124 549q0 123 30.5 225t87.5 175t137.5 113t180.5 40q97 0 168 -33t122 -95l10 108h217v-1053q0 -109 -36 -193.5t-100.5 -142.5t-154.5 -88.5t-198 -30.5q-44 0 -99.5 9.5t-111.5 31t-107 56t-87 83.5l114 143q61 -72 131.5 -103t145.5 -31q60 0 109 17t83 50 t52.5 81.5t18.5 111.5v73q-51 -56 -119.5 -86t-159.5 -30q-99 0 -179 41.5t-137 114.5t-87.5 173.5t-30.5 218.5v21zM364 528q0 -73 15 -137t46 -112t79.5 -75.5t114.5 -27.5q83 0 135 34.5t83 92.5v478q-32 57 -84 91t-132 34q-66 0 -114.5 -28t-80 -77t-47 -114 t-15.5 -138v-21zM488 1387q0 49 12.5 96.5t33 89.5t47 75.5t54.5 54.5l130 -83q-32 -55 -48.5 -113.5t-16.5 -130.5l-1 -121h-211v132z" />
<glyph unicode="&#x124;" d="M1092 0h-234v650h-495v-650h-233v1456h233v-609h495v609h234v-1456zM948 1619v-27h-192l-150 137l-149 -137h-190v29l269 240h140z" />
<glyph unicode="&#x125;" d="M394 932q56 80 136.5 125t179.5 45q84 0 154.5 -25t120.5 -77.5t78 -135t28 -197.5v-667h-239v669q0 62 -15.5 106.5t-44 73.5t-69.5 43t-93 14q-78 0 -138 -32.5t-98 -87.5v-786h-239v1536h239v-604zM907 1693v-27h-192l-150 137l-149 -137h-190v29l269 240h140z" />
<glyph unicode="&#x126;" d="M1066 1196h161v-160h-161v-1036h-234v650h-495v-650h-233v1036h-82v160h82v260h233v-260h495v260h234v-260zM337 847h495v189h-495v-189z" />
<glyph unicode="&#x127;" horiz-adv-x="1259" d="M686 1222h-262v-290q56 80 136.5 125t179.5 45q84 0 154.5 -25t120.5 -77.5t78 -135t28 -197.5v-667h-239v669q0 62 -15.5 106.5t-44 73.5t-69.5 43t-93 14q-78 0 -138 -32.5t-98 -87.5v-786h-239v1222h-166v170h166v144h239v-144h262v-170z" />
<glyph unicode="&#x128;" d="M181 1456h866v-199h-315v-1059h315v-198h-866v198h308v1059h-308v199zM936 1854q0 -46 -15.5 -88.5t-43.5 -75.5t-67.5 -52.5t-86.5 -19.5q-50 0 -84.5 14t-64.5 31t-60.5 31t-70.5 14q-19 0 -36 -7.5t-30 -21.5t-20.5 -33t-7.5 -42l-125 28q0 45 15.5 88t43 77 t66.5 54.5t87 20.5q41 0 75.5 -14t67 -31t65.5 -31t72 -14q19 0 36.5 7.5t30.5 21t20.5 33t7.5 42.5z" />
<glyph unicode="&#x129;" d="M199 1082h585v-884h330v-198h-915v198h344v685h-344v199zM1023 1506q0 -46 -15.5 -88.5t-43.5 -75.5t-67.5 -52.5t-86.5 -19.5q-50 0 -84.5 14t-64.5 31t-60.5 31t-70.5 14q-19 0 -36 -7.5t-30 -21.5t-20.5 -33t-7.5 -42l-125 28q0 45 15.5 88t43 77t66.5 54.5t87 20.5 q41 0 75.5 -14t67 -31t65.5 -31t72 -14q19 0 36.5 7.5t30.5 21t20.5 33t7.5 42.5z" />
<glyph unicode="&#x12a;" d="M181 1456h866v-199h-315v-1059h315v-198h-866v198h308v1059h-308v199zM948 1625h-726v157h726v-157z" />
<glyph unicode="&#x12b;" d="M199 1082h585v-884h330v-198h-915v198h344v685h-344v199zM1034 1278h-726v157h726v-157z" />
<glyph unicode="&#x12c;" d="M181 1456h866v-199h-315v-1059h315v-198h-866v198h308v1059h-308v199zM903 1864q0 -62 -22.5 -114t-64 -89t-101 -57.5t-133.5 -20.5t-133.5 20.5t-101 57.5t-64 89t-22.5 114h180q0 -28 7.5 -53t24.5 -44.5t43.5 -31t65.5 -11.5q38 0 65 11.5t43.5 31t24 44.5t7.5 53 h181z" />
<glyph unicode="&#x12d;" d="M199 1082h585v-884h330v-198h-915v198h344v685h-344v199zM989 1516q0 -62 -22.5 -114t-64 -89t-101 -57.5t-133.5 -20.5t-133.5 20.5t-101 57.5t-64 89t-22.5 114h180q0 -28 7.5 -53t24.5 -44.5t43.5 -31t65.5 -11.5q38 0 65 11.5t43.5 31t24 44.5t7.5 53h181z" />
<glyph unicode="&#x12e;" d="M181 1456h866v-199h-315v-1059h315v-198h-275q-85 -39 -124 -88t-39 -109q0 -31 16 -51t56 -20q31 0 53.5 8t37.5 15l40 -141q-28 -15 -72 -29.5t-113 -14.5q-44 0 -82 13t-66.5 38t-45 62.5t-16.5 86.5q0 60 34 119.5t99 110.5h-369v198h308v1059h-308v199z" />
<glyph unicode="&#x12f;" d="M207 1082h577v-884h321v-198h-341q-85 -39 -124 -88t-39 -109q0 -31 16 -51t56 -20q31 0 53.5 8t37.5 15l40 -141q-28 -15 -72 -29.5t-113 -14.5q-44 0 -82 13t-66.5 38t-45 62.5t-16.5 86.5q0 60 34 119.5t99 110.5h-335v198h336v685h-336v199zM523 1362q0 56 36 92.5 t101 36.5q66 0 102.5 -36.5t36.5 -92.5t-36.5 -92.5t-102.5 -36.5q-65 0 -101 36.5t-36 92.5z" />
<glyph unicode="&#x130;" d="M181 1456h866v-199h-315v-1059h315v-198h-866v198h308v1059h-308v199zM444 1716q0 55 35 91.5t100 36.5q66 0 101 -36.5t35 -91.5q0 -54 -35 -90.5t-101 -36.5q-65 0 -100 36.5t-35 90.5z" />
<glyph unicode="&#x131;" d="M199 1082h585v-884h330v-198h-915v198h344v685h-344v199z" />
<glyph unicode="&#x132;" d="M326 0h-200v1456h200v-1456zM902 1456h200v-1134q0 -80 -20.5 -143.5t-63 -107.5t-107 -67t-151.5 -23q-72 0 -133 20.5t-105.5 62.5t-69 106t-24.5 151h200q0 -94 36 -137t96 -43q41 0 68.5 12.5t44 36t23 57t6.5 75.5v1134z" />
<glyph unicode="&#x133;" d="M688 1082h416v-1088q0 -104 -28.5 -184t-83.5 -134t-134 -82t-180 -28q-57 0 -107 3.5t-105 13.5l14 167q17 -3 42.5 -5.5t52.5 -4t51 -2t38 -0.5q50 0 94 12t76.5 41.5t51 78.5t18.5 124v918h-216v170zM81 1082h429v-912h225v-170h-660v170h235v742h-229v170zM297 1360 q0 47 29 79t86 32t86.5 -32t29.5 -79q0 -46 -29.5 -77.5t-86.5 -31.5t-86 31.5t-29 77.5zM880 1361q0 47 29 79t86 32t86.5 -32t29.5 -79q0 -46 -29.5 -77.5t-86.5 -31.5t-86 31.5t-29 77.5z" />
<glyph unicode="&#x134;" d="M832 1456h243l1 -1011q-2 -102 -39.5 -187.5t-103 -147t-153.5 -96t-191 -34.5q-107 0 -194 29.5t-150 86t-100 139.5t-42 190h242q5 -118 66.5 -183.5t177.5 -65.5q55 0 100 21t76.5 58t48.5 85.5t18 104.5v1011zM1296 1612v-27h-192l-150 137l-149 -137h-190v29 l269 240h140z" />
<glyph unicode="&#x135;" d="M284 1082h554v-1099q0 -106 -29.5 -184.5t-86.5 -131t-139 -78.5t-187 -26q-51 0 -99 3.5t-97 13.5l14 194q15 -3 38.5 -5.5t48 -4t47 -2t34.5 -0.5q45 0 84.5 11t69 36.5t46 68t16.5 105.5v900h-314v199zM1061 1262v-27h-192l-150 137l-149 -137h-190v29l269 240h140z " />
<glyph unicode="&#x136;" d="M546 633l-156 -175v-458h-243v1456h243v-682l133 173l383 509h293l-495 -639l520 -817h-288zM731 -132q0 -43 -9.5 -90.5t-28 -94t-47 -89t-67.5 -75.5l-113 76q38 63 56.5 128.5t18.5 141.5v72h190v-69z" />
<glyph unicode="&#x137;" d="M525 473l-130 -124v-349h-239v1536h239v-905l101 113l318 338h288l-418 -450l482 -632h-298zM677 -131q0 -43 -9.5 -90.5t-28 -94t-47 -89t-67.5 -75.5l-113 76q38 63 56.5 128.5t18.5 141.5v72h190v-69z" />
<glyph unicode="&#x138;" d="M565 450l-157 -135v-315h-239v1082h239v-496l105 120l340 376h295l-419 -463l445 -619h-304z" />
<glyph unicode="&#x139;" d="M412 196h694v-196h-934v1456h240v-1260zM377 1794h274l-277 -273h-182z" />
<glyph unicode="&#x13a;" d="M199 1536h585v-1338h330v-198h-915v198h344v1139h-344v199zM744 1893h274l-277 -273h-182z" />
<glyph unicode="&#x13b;" d="M412 196h694v-196h-934v1456h240v-1260zM735 -120q0 -43 -9.5 -90.5t-28 -94t-47 -89t-67.5 -75.5l-113 76q38 63 56.5 128.5t18.5 141.5v72h190v-69z" />
<glyph unicode="&#x13c;" d="M199 1536h585v-1338h330v-198h-915v198h344v1139h-344v199zM770 -119q0 -43 -9.5 -90.5t-28 -94t-47 -89t-67.5 -75.5l-113 76q38 63 56.5 128.5t18.5 141.5v72h190v-69z" />
<glyph unicode="&#x13d;" d="M412 196h694v-196h-934v1456h240v-1260zM1016 1295q0 -50 -13 -103.5t-37 -105t-58 -98.5t-75 -83l-117 78q43 69 67 143.5t24 167.5v163h209v-162z" />
<glyph unicode="&#x13e;" horiz-adv-x="1379" d="M199 1536h585v-1338h330v-198h-915v198h344v1139h-344v199zM1273 1379q0 -50 -13 -103.5t-37 -105t-58 -98.5t-75 -83l-117 78q43 69 67 143.5t24 167.5v163h209v-162z" />
<glyph unicode="&#x13f;" d="M412 196h694v-196h-934v1456h240v-1260zM619 803q0 55 35 91.5t100 36.5q66 0 101 -36.5t35 -91.5q0 -54 -35 -90.5t-101 -36.5q-65 0 -100 36.5t-35 90.5z" />
<glyph unicode="&#x140;" horiz-adv-x="1449" d="M199 1536h585v-1338h330v-198h-915v198h344v1139h-344v199zM892 816q0 55 35 91.5t100 36.5q66 0 101 -36.5t35 -91.5q0 -54 -35 -90.5t-101 -36.5q-65 0 -100 36.5t-35 90.5z" />
<glyph unicode="&#x141;" d="M426 868l244 74v-183l-244 -74v-489h694v-196h-934v612l-132 -40v183l132 40v661h240v-588z" />
<glyph unicode="&#x142;" d="M791 1004l279 128v-183l-279 -128v-623h330v-198h-915v198h344v512l-322 -148v183l322 148v444h-344v199h585v-532z" />
<glyph unicode="&#x143;" d="M1091 0h-242l-474 1002l-1 -1002h-243v1456h243l472 -999l2 999h243v-1456zM680 1823h274l-277 -273h-182z" />
<glyph unicode="&#x144;" d="M371 1082l15 -150q59 81 142.5 125.5t185.5 44.5q83 0 151.5 -24t118 -75t77 -132t27.5 -195v-676h-239v672q0 67 -15.5 112t-44 72t-69.5 38.5t-93 11.5q-79 0 -137.5 -35t-94.5 -95v-776h-240v1082h216zM687 1501h274l-277 -273h-182z" />
<glyph unicode="&#x145;" d="M1091 0h-242l-474 1002l-1 -1002h-243v1456h243l472 -999l2 999h243v-1456zM702 -124q0 -43 -9.5 -90.5t-28 -94t-47 -89t-67.5 -75.5l-113 76q38 63 56.5 128.5t18.5 141.5v72h190v-69z" />
<glyph unicode="&#x146;" d="M371 1082l15 -150q59 81 142.5 125.5t185.5 44.5q83 0 151.5 -24t118 -75t77 -132t27.5 -195v-676h-239v672q0 67 -15.5 112t-44 72t-69.5 38.5t-93 11.5q-79 0 -137.5 -35t-94.5 -95v-776h-240v1082h216zM710 -120q0 -43 -9.5 -90.5t-28 -94t-47 -89t-67.5 -75.5 l-113 76q38 63 56.5 128.5t18.5 141.5v72h190v-69z" />
<glyph unicode="&#x147;" d="M1091 0h-242l-474 1002l-1 -1002h-243v1456h243l472 -999l2 999h243v-1456zM599 1730l146 136h205v-18l-277 -251h-148l-275 249v20h203z" />
<glyph unicode="&#x148;" d="M371 1082l15 -150q59 81 142.5 125.5t185.5 44.5q83 0 151.5 -24t118 -75t77 -132t27.5 -195v-676h-239v672q0 67 -15.5 112t-44 72t-69.5 38.5t-93 11.5q-79 0 -137.5 -35t-94.5 -95v-776h-240v1082h216zM606 1408l146 136h205v-18l-277 -251h-148l-275 249v20h203z" />
<glyph unicode="&#x149;" d="M371 1082l15 -150q59 81 142.5 125.5t185.5 44.5q83 0 151.5 -24t118 -75t77 -132t27.5 -195v-676h-239v672q0 67 -15.5 112t-44 72t-69.5 38.5t-93 11.5q-79 0 -137.5 -35t-94.5 -95v-776h-240v1082h216zM179 1397q0 -50 -13 -103.5t-37 -105t-58 -98.5t-75 -83l-117 78 q43 69 67 143.5t24 167.5v163h209v-162z" />
<glyph unicode="&#x14a;" d="M1075 1456v-1520q0 -90 -24 -160t-69.5 -117t-111 -71.5t-147.5 -24.5q-34 0 -63 3.5t-63 13.5l14 189q19 -6 49.5 -9t49.5 -3q59 0 91.5 47t32.5 132v64l-433 962v-962h-240v1456h240l433 -960v960h241z" />
<glyph unicode="&#x14b;" d="M383 1082l13 -150q53 80 131.5 125t179.5 45q81 0 147.5 -24t113.5 -75.5t72.5 -132.5t25.5 -196v-738q0 -90 -24 -160t-69.5 -117t-110.5 -71.5t-147 -24.5q-34 0 -63.5 3.5t-62.5 13.5l14 195q19 -6 49.5 -9t49.5 -3q59 0 91.5 43.5t32.5 129.5v736q0 66 -13 110.5 t-38.5 72t-63 39.5t-86.5 12q-78 0 -132.5 -28.5t-89.5 -77.5v-800h-239v1082h219z" />
<glyph unicode="&#x14c;" d="M1136 634q0 -129 -33 -247.5t-98.5 -209t-164 -144t-230.5 -53.5q-131 0 -228 54t-161.5 144.5t-97 208.5t-32.5 247v186q0 86 14.5 168t43 154.5t71 134t100 105.5t130 69t159.5 25q132 0 230.5 -54t164.5 -144.5t99 -209.5t33 -248v-186zM895 822q-1 82 -15 163 t-47 144.5t-87.5 103t-136.5 39.5q-81 0 -134.5 -39.5t-85 -103.5t-44 -144.5t-13.5 -162.5v-188q1 -82 14 -162.5t44.5 -145t85 -104.5t134.5 -40q82 0 136.5 40t87.5 104t46.5 145t14.5 163v188zM992 1646h-726v157h726v-157z" />
<glyph unicode="&#x14d;" d="M111 551q0 117 34.5 218t99 175t157.5 116t211 42q119 0 212.5 -42t158 -116t98.5 -175t34 -218v-21q0 -118 -34 -219t-98.5 -174.5t-157.5 -115.5t-211 -42q-119 0 -212.5 42t-158 115.5t-99 174.5t-34.5 219v21zM350 530q0 -74 15.5 -139t48 -114.5t82.5 -78t119 -28.5 q67 0 116.5 28.5t82 78t48 114.5t15.5 139v21q0 72 -15.5 137t-48 114t-82 78t-118.5 29q-68 0 -118 -29t-82 -78t-47.5 -114t-15.5 -137v-21zM985 1303h-726v157h726v-157z" />
<glyph unicode="&#x14e;" d="M1136 634q0 -129 -33 -247.5t-98.5 -209t-164 -144t-230.5 -53.5q-131 0 -228 54t-161.5 144.5t-97 208.5t-32.5 247v186q0 86 14.5 168t43 154.5t71 134t100 105.5t130 69t159.5 25q132 0 230.5 -54t164.5 -144.5t99 -209.5t33 -248v-186zM895 822q-1 82 -15 163 t-47 144.5t-87.5 103t-136.5 39.5q-81 0 -134.5 -39.5t-85 -103.5t-44 -144.5t-13.5 -162.5v-188q1 -82 14 -162.5t44.5 -145t85 -104.5t134.5 -40q82 0 136.5 40t87.5 104t46.5 145t14.5 163v188zM947 1885q0 -62 -22.5 -114t-64 -89t-101 -57.5t-133.5 -20.5t-133.5 20.5 t-101 57.5t-64 89t-22.5 114h180q0 -28 7.5 -53t24.5 -44.5t43.5 -31t65.5 -11.5q38 0 65 11.5t43.5 31t24 44.5t7.5 53h181z" />
<glyph unicode="&#x14f;" d="M111 551q0 117 34.5 218t99 175t157.5 116t211 42q119 0 212.5 -42t158 -116t98.5 -175t34 -218v-21q0 -118 -34 -219t-98.5 -174.5t-157.5 -115.5t-211 -42q-119 0 -212.5 42t-158 115.5t-99 174.5t-34.5 219v21zM350 530q0 -74 15.5 -139t48 -114.5t82.5 -78t119 -28.5 q67 0 116.5 28.5t82 78t48 114.5t15.5 139v21q0 72 -15.5 137t-48 114t-82 78t-118.5 29q-68 0 -118 -29t-82 -78t-47.5 -114t-15.5 -137v-21zM940 1542q0 -62 -22.5 -114t-64 -89t-101 -57.5t-133.5 -20.5t-133.5 20.5t-101 57.5t-64 89t-22.5 114h180q0 -28 7.5 -53 t24.5 -44.5t43.5 -31t65.5 -11.5q38 0 65 11.5t43.5 31t24 44.5t7.5 53h181z" />
<glyph unicode="&#x150;" d="M1136 634q0 -129 -33 -247.5t-98.5 -209t-164 -144t-230.5 -53.5q-131 0 -228 54t-161.5 144.5t-97 208.5t-32.5 247v186q0 86 14.5 168t43 154.5t71 134t100 105.5t130 69t159.5 25q132 0 230.5 -54t164.5 -144.5t99 -209.5t33 -248v-186zM895 822q-1 82 -15 163 t-47 144.5t-87.5 103t-136.5 39.5q-81 0 -134.5 -39.5t-85 -103.5t-44 -144.5t-13.5 -162.5v-188q1 -82 14 -162.5t44.5 -145t85 -104.5t134.5 -40q82 0 136.5 40t87.5 104t46.5 145t14.5 163v188zM906 1888h257l-306 -266h-196zM559 1888h241l-251 -266h-183z" />
<glyph unicode="&#x151;" d="M111 551q0 117 34.5 218t99 175t157.5 116t211 42q119 0 212.5 -42t158 -116t98.5 -175t34 -218v-21q0 -118 -34 -219t-98.5 -174.5t-157.5 -115.5t-211 -42q-119 0 -212.5 42t-158 115.5t-99 174.5t-34.5 219v21zM350 530q0 -74 15.5 -139t48 -114.5t82.5 -78t119 -28.5 q67 0 116.5 28.5t82 78t48 114.5t15.5 139v21q0 72 -15.5 137t-48 114t-82 78t-118.5 29q-68 0 -118 -29t-82 -78t-47.5 -114t-15.5 -137v-21zM898 1545h257l-306 -266h-196zM551 1545h241l-251 -266h-183z" />
<glyph unicode="&#x152;" d="M1190 0h-421q-63 -8 -130 -14.5t-138 -6.5q-93 0 -171.5 31t-135 95t-88 161.5t-31.5 229.5v464q0 132 31 229.5t87.5 161.5t134.5 95t171 31q71 0 139 -6.5t131 -14.5h410v-189h-367v-418h316v-189h-316v-464h378v-196zM501 175q46 0 91 3v1106q-23 2 -46.5 3t-46.5 1 q-48 0 -85.5 -14t-63.5 -51t-40 -100t-14 -161v-466q0 -96 14 -158.5t40.5 -98.5t64.5 -50t86 -14z" />
<glyph unicode="&#x153;" d="M44 641q0 108 24 193.5t69.5 145t111 91t149.5 31.5q75 0 135.5 -26t104.5 -76q43 51 99.5 77t122.5 25q81 0 143 -31.5t104 -88t63 -135t21 -173.5v-202h-433v-46q0 -122 39 -188.5t122 -66.5q58 0 96 15.5t70 37.5l59 -156q-35 -35 -93 -61.5t-146 -26.5 q-166 0 -263 105q-45 -51 -105 -78t-137 -27q-84 0 -150.5 31t-112 90.5t-69.5 145t-24 193.5v201zM275 440q0 -128 28 -198.5t97 -70.5q67 0 95.5 70.5t28.5 198.5v201q0 62 -7 112t-22 84.5t-39 53t-58 18.5q-33 0 -56.5 -18.5t-38.5 -53t-21.5 -84.5t-6.5 -112v-201z M860 909q-56 0 -79 -68t-23 -192h205v85q0 37 -6 69t-18.5 55.5t-32 37t-46.5 13.5z" />
<glyph unicode="&#x154;" d="M637 568h-244v-568h-240v1456h460q112 -1 206.5 -28.5t163.5 -82t107 -136.5t38 -192q0 -74 -19.5 -134.5t-54.5 -109.5t-84 -86t-108 -63l308 -612v-12h-256zM393 762h221q60 0 110 17t86.5 48.5t56.5 77t20 104.5q0 61 -19 108t-54.5 79t-86.5 48.5t-114 17.5h-220 v-500zM689 1811h274l-277 -273h-182z" />
<glyph unicode="&#x155;" d="M898 1102q29 0 58 -2t55.5 -6t48.5 -8.5t37 -10.5l-34 -235q-110 25 -217 25q-120 0 -193.5 -50t-108.5 -139v-676h-239v1082h224l11 -169q66 88 156.5 138.5t201.5 50.5zM663 1501h274l-277 -273h-182z" />
<glyph unicode="&#x156;" d="M637 568h-244v-568h-240v1456h460q112 -1 206.5 -28.5t163.5 -82t107 -136.5t38 -192q0 -74 -19.5 -134.5t-54.5 -109.5t-84 -86t-108 -63l308 -612v-12h-256zM393 762h221q60 0 110 17t86.5 48.5t56.5 77t20 104.5q0 61 -19 108t-54.5 79t-86.5 48.5t-114 17.5h-220 v-500zM716 -120q0 -43 -9.5 -90.5t-28 -94t-47 -89t-67.5 -75.5l-113 76q38 63 56.5 128.5t18.5 141.5v72h190v-69z" />
<glyph unicode="&#x157;" d="M898 1102q29 0 58 -2t55.5 -6t48.5 -8.5t37 -10.5l-34 -235q-110 25 -217 25q-120 0 -193.5 -50t-108.5 -139v-676h-239v1082h224l11 -169q66 88 156.5 138.5t201.5 50.5zM531 -120q0 -43 -9.5 -90.5t-28 -94t-47 -89t-67.5 -75.5l-113 76q38 63 56.5 128.5t18.5 141.5 v72h190v-69z" />
<glyph unicode="&#x158;" d="M637 568h-244v-568h-240v1456h460q112 -1 206.5 -28.5t163.5 -82t107 -136.5t38 -192q0 -74 -19.5 -134.5t-54.5 -109.5t-84 -86t-108 -63l308 -612v-12h-256zM393 762h221q60 0 110 17t86.5 48.5t56.5 77t20 104.5q0 61 -19 108t-54.5 79t-86.5 48.5t-114 17.5h-220 v-500zM608 1718l146 136h205v-18l-277 -251h-148l-275 249v20h203z" />
<glyph unicode="&#x159;" d="M898 1102q29 0 58 -2t55.5 -6t48.5 -8.5t37 -10.5l-34 -235q-110 25 -217 25q-120 0 -193.5 -50t-108.5 -139v-676h-239v1082h224l11 -169q66 88 156.5 138.5t201.5 50.5zM582 1408l146 136h205v-18l-277 -251h-148l-275 249v20h203z" />
<glyph unicode="&#x15a;" d="M905 375q0 52 -21.5 91.5t-61 69.5t-94 52.5t-118.5 41.5q-86 25 -169.5 62t-149 90.5t-106 125t-40.5 165.5t40.5 168.5t108.5 126.5t158 80t188 28q105 0 196.5 -32.5t160 -91t108.5 -140t41 -180.5h-240q-5 55 -23.5 100.5t-52 78.5t-81.5 51t-111 18q-54 0 -100 -14 t-79.5 -41t-52.5 -65t-19 -86q0 -51 26 -88.5t68 -65.5t96.5 -48.5t113.5 -37.5q91 -27 174 -66.5t146 -95t100 -128.5t37 -167q0 -97 -41 -171t-110 -124t-160 -75.5t-190 -25.5q-67 0 -133 13t-126.5 39t-112.5 64.5t-90.5 89t-60.5 113t-23 137.5h241q5 -66 29 -115 t64 -81.5t93.5 -49t118.5 -16.5q54 0 101 13t82 38.5t55 63t20 85.5zM717 1844h274l-277 -273h-182z" />
<glyph unicode="&#x15b;" d="M860 293q0 27 -11 49.5t-39.5 41t-78 34.5t-126.5 31q-96 20 -173.5 48t-133 67t-85.5 90.5t-30 119.5q0 66 31 125.5t88.5 104.5t140 71.5t184.5 26.5q108 0 193.5 -27t144.5 -73.5t90.5 -109.5t31.5 -135h-239q0 32 -14 61.5t-42 52.5t-69.5 36.5t-95.5 13.5 t-93.5 -11.5t-65.5 -30t-38.5 -43.5t-12.5 -52t9.5 -49t35.5 -40t72 -32.5t119 -27.5q102 -18 183.5 -45t139 -66t88.5 -92.5t31 -125.5t-33 -132t-94 -103.5t-146.5 -67.5t-191.5 -24q-118 0 -208 31.5t-151 82.5t-92.5 116t-31.5 132h232q3 -50 26 -85t59 -56.5t80 -31 t89 -9.5q111 0 169 37.5t58 96.5zM689 1501h274l-277 -273h-182z" />
<glyph unicode="&#x15c;" d="M905 375q0 52 -21.5 91.5t-61 69.5t-94 52.5t-118.5 41.5q-86 25 -169.5 62t-149 90.5t-106 125t-40.5 165.5t40.5 168.5t108.5 126.5t158 80t188 28q105 0 196.5 -32.5t160 -91t108.5 -140t41 -180.5h-240q-5 55 -23.5 100.5t-52 78.5t-81.5 51t-111 18q-54 0 -100 -14 t-79.5 -41t-52.5 -65t-19 -86q0 -51 26 -88.5t68 -65.5t96.5 -48.5t113.5 -37.5q91 -27 174 -66.5t146 -95t100 -128.5t37 -167q0 -97 -41 -171t-110 -124t-160 -75.5t-190 -25.5q-67 0 -133 13t-126.5 39t-112.5 64.5t-90.5 89t-60.5 113t-23 137.5h241q5 -66 29 -115 t64 -81.5t93.5 -49t118.5 -16.5q54 0 101 13t82 38.5t55 63t20 85.5zM978 1645v-27h-192l-150 137l-149 -137h-190v29l269 240h140z" />
<glyph unicode="&#x15d;" d="M860 293q0 27 -11 49.5t-39.5 41t-78 34.5t-126.5 31q-96 20 -173.5 48t-133 67t-85.5 90.5t-30 119.5q0 66 31 125.5t88.5 104.5t140 71.5t184.5 26.5q108 0 193.5 -27t144.5 -73.5t90.5 -109.5t31.5 -135h-239q0 32 -14 61.5t-42 52.5t-69.5 36.5t-95.5 13.5 t-93.5 -11.5t-65.5 -30t-38.5 -43.5t-12.5 -52t9.5 -49t35.5 -40t72 -32.5t119 -27.5q102 -18 183.5 -45t139 -66t88.5 -92.5t31 -125.5t-33 -132t-94 -103.5t-146.5 -67.5t-191.5 -24q-118 0 -208 31.5t-151 82.5t-92.5 116t-31.5 132h232q3 -50 26 -85t59 -56.5t80 -31 t89 -9.5q111 0 169 37.5t58 96.5zM950 1302v-27h-192l-150 137l-149 -137h-190v29l269 240h140z" />
<glyph unicode="&#x15e;" d="M905 375q0 52 -21.5 91.5t-61 69.5t-94 52.5t-118.5 41.5q-86 25 -169.5 62t-149 90.5t-106 125t-40.5 165.5t40.5 168.5t108.5 126.5t158 80t188 28q105 0 196.5 -32.5t160 -91t108.5 -140t41 -180.5h-240q-5 55 -23.5 100.5t-52 78.5t-81.5 51t-111 18q-54 0 -100 -14 t-79.5 -41t-52.5 -65t-19 -86q0 -51 26 -88.5t68 -65.5t96.5 -48.5t113.5 -37.5q91 -27 174 -66.5t146 -95t100 -128.5t37 -167q0 -97 -41 -171t-110 -124t-160 -75.5t-190 -25.5q-67 0 -133 13t-126.5 39t-112.5 64.5t-90.5 89t-60.5 113t-23 137.5h241q5 -66 29 -115 t64 -81.5t93.5 -49t118.5 -16.5q54 0 101 13t82 38.5t55 63t20 85.5zM739 -7l-12 -53q28 -5 55 -16.5t48 -32t34 -51t13 -73.5q0 -50 -20.5 -91t-61.5 -70t-101.5 -45t-140.5 -16l-7 136q30 0 55 5t43.5 15.5t29 27.5t10.5 41q0 45 -35.5 62.5t-115.5 22.5l31 138h175z" />
<glyph unicode="&#x15f;" d="M860 293q0 27 -11 49.5t-39.5 41t-78 34.5t-126.5 31q-96 20 -173.5 48t-133 67t-85.5 90.5t-30 119.5q0 66 31 125.5t88.5 104.5t140 71.5t184.5 26.5q108 0 193.5 -27t144.5 -73.5t90.5 -109.5t31.5 -135h-239q0 32 -14 61.5t-42 52.5t-69.5 36.5t-95.5 13.5 t-93.5 -11.5t-65.5 -30t-38.5 -43.5t-12.5 -52t9.5 -49t35.5 -40t72 -32.5t119 -27.5q102 -18 183.5 -45t139 -66t88.5 -92.5t31 -125.5t-33 -132t-94 -103.5t-146.5 -67.5t-191.5 -24q-118 0 -208 31.5t-151 82.5t-92.5 116t-31.5 132h232q3 -50 26 -85t59 -56.5t80 -31 t89 -9.5q111 0 169 37.5t58 96.5zM700 -7l-12 -53q28 -5 55 -16.5t48 -32t34 -51t13 -73.5q0 -50 -20.5 -91t-61.5 -70t-101.5 -45t-140.5 -16l-7 136q30 0 55 5t43.5 15.5t29 27.5t10.5 41q0 45 -35.5 62.5t-115.5 22.5l31 138h175z" />
<glyph unicode="&#x160;" d="M905 375q0 52 -21.5 91.5t-61 69.5t-94 52.5t-118.5 41.5q-86 25 -169.5 62t-149 90.5t-106 125t-40.5 165.5t40.5 168.5t108.5 126.5t158 80t188 28q105 0 196.5 -32.5t160 -91t108.5 -140t41 -180.5h-240q-5 55 -23.5 100.5t-52 78.5t-81.5 51t-111 18q-54 0 -100 -14 t-79.5 -41t-52.5 -65t-19 -86q0 -51 26 -88.5t68 -65.5t96.5 -48.5t113.5 -37.5q91 -27 174 -66.5t146 -95t100 -128.5t37 -167q0 -97 -41 -171t-110 -124t-160 -75.5t-190 -25.5q-67 0 -133 13t-126.5 39t-112.5 64.5t-90.5 89t-60.5 113t-23 137.5h241q5 -66 29 -115 t64 -81.5t93.5 -49t118.5 -16.5q54 0 101 13t82 38.5t55 63t20 85.5zM635 1751l146 136h205v-18l-277 -251h-148l-275 249v20h203z" />
<glyph unicode="&#x161;" d="M860 293q0 27 -11 49.5t-39.5 41t-78 34.5t-126.5 31q-96 20 -173.5 48t-133 67t-85.5 90.5t-30 119.5q0 66 31 125.5t88.5 104.5t140 71.5t184.5 26.5q108 0 193.5 -27t144.5 -73.5t90.5 -109.5t31.5 -135h-239q0 32 -14 61.5t-42 52.5t-69.5 36.5t-95.5 13.5 t-93.5 -11.5t-65.5 -30t-38.5 -43.5t-12.5 -52t9.5 -49t35.5 -40t72 -32.5t119 -27.5q102 -18 183.5 -45t139 -66t88.5 -92.5t31 -125.5t-33 -132t-94 -103.5t-146.5 -67.5t-191.5 -24q-118 0 -208 31.5t-151 82.5t-92.5 116t-31.5 132h232q3 -50 26 -85t59 -56.5t80 -31 t89 -9.5q111 0 169 37.5t58 96.5zM608 1408l146 136h205v-18l-277 -251h-148l-275 249v20h203z" />
<glyph unicode="&#x162;" d="M1180 1258h-447v-1258h-239v1258h-444v198h1130v-198zM708 8l-12 -53q28 -5 55 -16.5t48 -32t34 -51t13 -73.5q0 -50 -20.5 -91t-61.5 -70t-101.5 -45t-140.5 -16l-7 136q30 0 55 5t43.5 15.5t29 27.5t10.5 41q0 45 -35.5 62.5t-115.5 22.5l31 138h175z" />
<glyph unicode="&#x163;" d="M634 1344v-262h409v-178h-409v-519q0 -61 14.5 -101t40.5 -64t61 -33.5t77 -9.5q31 0 64.5 3.5t65 8t58 10t44.5 10.5l27 -165q-26 -15 -62.5 -27.5t-79.5 -20.5t-89.5 -12.5t-91.5 -4.5q-81 0 -148.5 22.5t-116 70t-76 122t-27.5 178.5v532h-264v178h264v262h239zM786 2 l-12 -53q28 -5 55 -16.5t48 -32t34 -51t13 -73.5q0 -50 -20.5 -91t-61.5 -70t-101.5 -45t-140.5 -16l-7 136q30 0 55 5t43.5 15.5t29 27.5t10.5 41q0 45 -35.5 62.5t-115.5 22.5l31 138h175z" />
<glyph unicode="&#x164;" d="M1180 1258h-447v-1258h-239v1258h-444v198h1130v-198zM621 1722l146 136h205v-18l-277 -251h-148l-275 249v20h203z" />
<glyph unicode="&#x165;" horiz-adv-x="1269" d="M634 1344v-262h409v-178h-409v-519q0 -61 14.5 -101t40.5 -64t61 -33.5t77 -9.5q31 0 64.5 3.5t65 8t58 10t44.5 10.5l27 -165q-26 -15 -62.5 -27.5t-79.5 -20.5t-89.5 -12.5t-91.5 -4.5q-81 0 -148.5 22.5t-116 70t-76 122t-27.5 178.5v532h-264v178h264v262h239z M1198 1564q0 -50 -13 -103.5t-37 -105t-58 -98.5t-75 -83l-117 78q43 69 67 143.5t24 167.5v163h209v-162z" />
<glyph unicode="&#x166;" d="M940 788h-207v-788h-239v788h-221v170h221v300h-444v198h1130v-198h-447v-300h207v-170z" />
<glyph unicode="&#x167;" d="M634 1344v-262h409v-178h-409v-166h223v-170h-223v-183q0 -61 14.5 -101t40.5 -64t61 -33.5t77 -9.5q31 0 64.5 3.5t65 8t58 10t44.5 10.5l27 -165q-26 -15 -62.5 -27.5t-79.5 -20.5t-89.5 -12.5t-91.5 -4.5q-81 0 -148.5 22.5t-116 70t-76 122t-27.5 178.5v196h-205v170 h205v166h-264v178h264v262h239z" />
<glyph unicode="&#x168;" d="M1096 1456l2 -975q-1 -112 -36 -204.5t-98 -158.5t-152.5 -102t-200.5 -36q-108 0 -196 36t-151 101.5t-98 158t-36 205.5l2 975h236l2 -975q1 -67 17 -123t46 -96.5t74.5 -63t103.5 -22.5q60 0 106 22.5t77 63t47 96.5t17 123l2 975h236zM1000 1846q0 -46 -15.5 -88.5 t-43.5 -75.5t-67.5 -52.5t-86.5 -19.5q-50 0 -84.5 14t-64.5 31t-60.5 31t-70.5 14q-19 0 -36 -7.5t-30 -21.5t-20.5 -33t-7.5 -42l-125 28q0 45 15.5 88t43 77t66.5 54.5t87 20.5q41 0 75.5 -14t67 -31t65.5 -31t72 -14q19 0 36.5 7.5t30.5 21t20.5 33t7.5 42.5z" />
<glyph unicode="&#x169;" d="M849 148q-55 -80 -133.5 -124.5t-175.5 -44.5q-84 0 -153.5 26t-119 82.5t-77 144t-27.5 210.5v640h239v-642q0 -78 11.5 -129t35.5 -81t60 -42.5t86 -12.5q96 0 155 37.5t89 101.5v768h240v-1082h-216zM975 1511q0 -46 -15.5 -88.5t-43.5 -75.5t-67.5 -52.5t-86.5 -19.5 q-50 0 -84.5 14t-64.5 31t-60.5 31t-70.5 14q-19 0 -36 -7.5t-30 -21.5t-20.5 -33t-7.5 -42l-125 28q0 45 15.5 88t43 77t66.5 54.5t87 20.5q41 0 75.5 -14t67 -31t65.5 -31t72 -14q19 0 36.5 7.5t30.5 21t20.5 33t7.5 42.5z" />
<glyph unicode="&#x16a;" d="M1096 1456l2 -975q-1 -112 -36 -204.5t-98 -158.5t-152.5 -102t-200.5 -36q-108 0 -196 36t-151 101.5t-98 158t-36 205.5l2 975h236l2 -975q1 -67 17 -123t46 -96.5t74.5 -63t103.5 -22.5q60 0 106 22.5t77 63t47 96.5t17 123l2 975h236zM1011 1617h-726v157h726v-157z " />
<glyph unicode="&#x16b;" d="M849 148q-55 -80 -133.5 -124.5t-175.5 -44.5q-84 0 -153.5 26t-119 82.5t-77 144t-27.5 210.5v640h239v-642q0 -78 11.5 -129t35.5 -81t60 -42.5t86 -12.5q96 0 155 37.5t89 101.5v768h240v-1082h-216zM987 1283h-726v157h726v-157z" />
<glyph unicode="&#x16c;" d="M1096 1456l2 -975q-1 -112 -36 -204.5t-98 -158.5t-152.5 -102t-200.5 -36q-108 0 -196 36t-151 101.5t-98 158t-36 205.5l2 975h236l2 -975q1 -67 17 -123t46 -96.5t74.5 -63t103.5 -22.5q60 0 106 22.5t77 63t47 96.5t17 123l2 975h236zM966 1856q0 -62 -22.5 -114 t-64 -89t-101 -57.5t-133.5 -20.5t-133.5 20.5t-101 57.5t-64 89t-22.5 114h180q0 -28 7.5 -53t24.5 -44.5t43.5 -31t65.5 -11.5q38 0 65 11.5t43.5 31t24 44.5t7.5 53h181z" />
<glyph unicode="&#x16d;" d="M849 148q-55 -80 -133.5 -124.5t-175.5 -44.5q-84 0 -153.5 26t-119 82.5t-77 144t-27.5 210.5v640h239v-642q0 -78 11.5 -129t35.5 -81t60 -42.5t86 -12.5q96 0 155 37.5t89 101.5v768h240v-1082h-216zM942 1521q0 -62 -22.5 -114t-64 -89t-101 -57.5t-133.5 -20.5 t-133.5 20.5t-101 57.5t-64 89t-22.5 114h180q0 -28 7.5 -53t24.5 -44.5t43.5 -31t65.5 -11.5q38 0 65 11.5t43.5 31t24 44.5t7.5 53h181z" />
<glyph unicode="&#x16e;" d="M1096 1456l2 -975q-1 -112 -36 -204.5t-98 -158.5t-152.5 -102t-200.5 -36q-108 0 -196 36t-151 101.5t-98 158t-36 205.5l2 975h236l2 -975q1 -67 17 -123t46 -96.5t74.5 -63t103.5 -22.5q60 0 106 22.5t77 63t47 96.5t17 123l2 975h236zM433 1726q0 43 17 79t45.5 62.5 t67 41.5t82.5 15q43 0 81 -15t66 -41.5t44 -62.5t16 -79q0 -44 -16 -79.5t-44 -61.5t-66 -40t-81 -14q-44 0 -82.5 14t-67 40t-45.5 61.5t-17 79.5zM542 1726q0 -22 8 -40.5t22.5 -32t33 -21.5t39.5 -8q42 0 70 28.5t28 73.5q0 46 -28 75t-70 29q-21 0 -39.5 -7.5t-33 -21.5 t-22.5 -33t-8 -42z" />
<glyph unicode="&#x16f;" d="M849 148q-55 -80 -133.5 -124.5t-175.5 -44.5q-84 0 -153.5 26t-119 82.5t-77 144t-27.5 210.5v640h239v-642q0 -78 11.5 -129t35.5 -81t60 -42.5t86 -12.5q96 0 155 37.5t89 101.5v768h240v-1082h-216zM408 1391q0 43 17 79t45.5 62.5t67 41.5t82.5 15q43 0 81 -15 t66 -41.5t44 -62.5t16 -79q0 -44 -16 -79.5t-44 -61.5t-66 -40t-81 -14q-44 0 -82.5 14t-67 40t-45.5 61.5t-17 79.5zM517 1391q0 -22 8 -40.5t22.5 -32t33 -21.5t39.5 -8q42 0 70 28.5t28 73.5q0 46 -28 75t-70 29q-21 0 -39.5 -7.5t-33 -21.5t-22.5 -33t-8 -42z" />
<glyph unicode="&#x170;" d="M1096 1456l2 -975q-1 -112 -36 -204.5t-98 -158.5t-152.5 -102t-200.5 -36q-108 0 -196 36t-151 101.5t-98 158t-36 205.5l2 975h236l2 -975q1 -67 17 -123t46 -96.5t74.5 -63t103.5 -22.5q60 0 106 22.5t77 63t47 96.5t17 123l2 975h236zM925 1859h257l-306 -266h-196z M578 1859h241l-251 -266h-183z" />
<glyph unicode="&#x171;" d="M849 148q-55 -80 -133.5 -124.5t-175.5 -44.5q-84 0 -153.5 26t-119 82.5t-77 144t-27.5 210.5v640h239v-642q0 -78 11.5 -129t35.5 -81t60 -42.5t86 -12.5q96 0 155 37.5t89 101.5v768h240v-1082h-216zM900 1524h257l-306 -266h-196zM553 1524h241l-251 -266h-183z" />
<glyph unicode="&#x172;" d="M1096 1456l2 -975q-1 -83 -20 -155t-55 -131.5t-87.5 -104t-116.5 -71.5q-49 -33 -72 -73t-23 -86q0 -31 16 -51t56 -20q31 0 53.5 8t37.5 15l40 -141q-28 -15 -72 -29.5t-113 -14.5q-44 0 -82 13t-66.5 38t-45 62.5t-16.5 86.5q0 79 57 154q-103 4 -187.5 41 t-144.5 102.5t-93 156t-34 200.5l2 975h236l2 -975q1 -67 17 -123t46 -96.5t74.5 -63t103.5 -22.5q60 0 106 22.5t77 63t47 96.5t17 123l2 975h236z" />
<glyph unicode="&#x173;" d="M1069 0q-85 -39 -124 -88t-39 -109q0 -31 16 -51t56 -20q31 0 53.5 8t37.5 15l40 -141q-28 -15 -72 -29.5t-113 -14.5q-44 0 -82 13t-66.5 38t-45 62.5t-16.5 86.5q0 63 38 126.5t110 114.5l-13 137q-55 -80 -133.5 -124.5t-175.5 -44.5q-84 0 -153.5 26t-119 82.5 t-77 144t-27.5 210.5v640h239v-642q0 -78 11.5 -129t35.5 -81t60 -42.5t86 -12.5q96 0 155 37.5t89 101.5v768h240v-1082h-10z" />
<glyph unicode="&#x174;" d="M867 501l104 955h224l-186 -1456h-230l-159 968l-157 -968h-229l-186 1456h224l104 -950l149 950h188zM956 1624v-27h-192l-150 137l-149 -137h-190v29l269 240h140z" />
<glyph unicode="&#x175;" d="M360 356l7 -69l11 69l155 726h157l157 -734l11 -72l9 79l105 727h216l-211 -1082h-201l-164 724l-2 13l-2 -12l-161 -725h-200l-211 1082h215zM953 1281v-27h-192l-150 137l-149 -137h-190v29l269 240h140z" />
<glyph unicode="&#x176;" d="M616 760l303 696h268l-454 -933l-2 -523h-233l-2 529l-451 927h268zM961 1624v-27h-192l-150 137l-149 -137h-190v29l269 240h140z" />
<glyph unicode="&#x177;" d="M584 433l41 -130l304 779h265l-548 -1246q-18 -41 -47 -88.5t-71.5 -88.5t-101.5 -68.5t-138 -27.5q-33 0 -66.5 5.5t-59.5 12.5l34 186q7 0 19 -0.5t25 -1.5t24.5 -1.5t18.5 -0.5q35 0 62.5 20.5t48.5 47t34.5 52t19.5 34.5l71 134l-460 1031h264zM982 1281v-27h-192 l-150 137l-149 -137h-190v29l269 240h140z" />
<glyph unicode="&#x178;" d="M616 760l303 696h268l-454 -933l-2 -523h-233l-2 529l-451 927h268zM263 1715q0 50 33.5 84t92.5 34t92.5 -34t33.5 -84t-33.5 -83.5t-92.5 -33.5t-92.5 33.5t-33.5 83.5zM718 1714q0 50 33 83.5t92 33.5t92.5 -33.5t33.5 -83.5t-33.5 -84t-92.5 -34t-92 34t-33 84z" />
<glyph unicode="&#x179;" d="M383 196h735v-196h-1017l-1 162l712 1096h-706v198h989l1 -158zM725 1815h274l-277 -273h-182z" />
<glyph unicode="&#x17a;" d="M455 191h654v-191h-969v158l618 730h-608v194h930v-153zM735 1480h274l-277 -273h-182z" />
<glyph unicode="&#x17b;" d="M383 196h735v-196h-1017l-1 162l712 1096h-706v198h989l1 -158zM507 1708q0 55 35 91.5t100 36.5q66 0 101 -36.5t35 -91.5q0 -54 -35 -90.5t-101 -36.5q-65 0 -100 36.5t-35 90.5z" />
<glyph unicode="&#x17c;" d="M455 191h654v-191h-969v158l618 730h-608v194h930v-153zM517 1373q0 55 35 91.5t100 36.5q66 0 101 -36.5t35 -91.5q0 -54 -35 -90.5t-101 -36.5q-65 0 -100 36.5t-35 90.5z" />
<glyph unicode="&#x17d;" d="M383 196h735v-196h-1017l-1 162l712 1096h-706v198h989l1 -158zM643 1722l146 136h205v-18l-277 -251h-148l-275 249v20h203z" />
<glyph unicode="&#x17e;" d="M455 191h654v-191h-969v158l618 730h-608v194h930v-153zM653 1387l146 136h205v-18l-277 -251h-148l-275 249v20h203z" />
<glyph unicode="&#x17f;" d="M430 0v1109q0 114 32.5 202t93 148t147.5 91t195 31q39 0 76.5 -6t75.5 -15l-25 -183q-19 5 -40 8t-52 3q-129 0 -196.5 -75t-67.5 -204v-1109h-239z" />
<glyph unicode="&#x192;" d="M914 904h-200v-935q0 -98 -26 -174t-75.5 -127.5t-121 -78t-161.5 -26.5q-45 0 -88.5 8t-87.5 29l15 189q10 -8 30 -14t42 -10t42 -6.5t31 -2.5q81 0 120.5 56t39.5 157v935h-165v178h165v87q0 100 31 176.5t89 129t141 79.5t188 27q49 0 95.5 -12t95.5 -29l-24 -186 q-26 14 -61 22t-77 8q-122 0 -180 -55.5t-58 -159.5v-87h200v-178z" />
<glyph unicode="&#x1a0;" d="M1138 634q0 -129 -33 -247.5t-98.5 -209t-164 -144t-230.5 -53.5q-131 0 -228 54t-161.5 144.5t-97 208.5t-32.5 247v186q0 86 14.5 168t43 154.5t71 134t100 105.5t130 69t159.5 25q117 0 207 -43t156 -117q38 23 55.5 74t17.5 126h187q0 -126 -44 -211t-128 -123 q38 -80 56.5 -172t19.5 -190v-186zM897 822q-1 82 -15 163t-47 144.5t-87.5 103t-136.5 39.5q-81 0 -134.5 -39.5t-85 -103.5t-44 -144.5t-13.5 -162.5v-188q1 -82 14 -162.5t44.5 -145t85 -104.5t134.5 -40q82 0 136.5 40t87.5 104t46.5 145t14.5 163v188z" />
<glyph unicode="&#x1a1;" d="M107 551q0 117 34.5 218t99 175t157.5 116t211 42q100 0 180.5 -29.5t142.5 -82.5q38 24 57 74t19 122h186q0 -116 -42 -196.5t-119 -122.5q38 -66 58.5 -146t20.5 -170v-21q0 -118 -34 -219t-98.5 -174.5t-157.5 -115.5t-211 -42q-119 0 -212.5 42t-158 115.5t-99 174.5 t-34.5 219v21zM346 530q0 -74 15.5 -139t48 -114.5t82.5 -78t119 -28.5q67 0 116.5 28.5t82 78t48 114.5t15.5 139v21q0 72 -15.5 137t-48 114t-82 78t-118.5 29q-68 0 -118 -29t-82 -78t-47.5 -114t-15.5 -137v-21z" />
<glyph unicode="&#x1af;" d="M1100 1456v-190q48 4 78 20.5t47 46.5t23 74t6 102h190q0 -191 -81.5 -287.5t-261.5 -104.5l1 -636q-1 -112 -36 -204.5t-98 -158.5t-152.5 -102t-200.5 -36q-108 0 -196 36t-151 101.5t-98 158t-36 205.5l2 975h236l2 -975q1 -67 17 -123t46 -96.5t74.5 -63t103.5 -22.5 q60 0 106 22.5t77 63t47 96.5t17 123l2 975h236z" />
<glyph unicode="&#x1b0;" d="M1363 1173q0 -178 -74 -273.5t-226 -118.5v-781h-216l-14 148q-55 -80 -133.5 -124.5t-175.5 -44.5q-84 0 -153.5 26t-119 82.5t-77 144t-27.5 210.5v640h239v-642q0 -78 11.5 -129t35.5 -81t60 -42.5t86 -12.5q96 0 155 37.5t89 101.5v768h240v-143q62 23 86.5 80 t24.5 154h189z" />
<glyph unicode="&#x1f0;" d="M284 1082h554v-1099q0 -106 -29.5 -184.5t-86.5 -131t-139 -78.5t-187 -26q-51 0 -99 3.5t-97 13.5l14 194q15 -3 38.5 -5.5t48 -4t47 -2t34.5 -0.5q45 0 84.5 11t69 36.5t46 68t16.5 105.5v900h-314v199zM718 1368l146 136h205v-18l-277 -251h-148l-275 249v20h203z" />
<glyph unicode="&#x1fa;" d="M855 338h-455l-100 -338h-248l473 1456h211l464 -1456h-247zM461 543h334l-165 571zM737 2110h237l-244 -194h-156zM447 1695q0 38 14.5 70.5t40 56t59.5 37t73 13.5q38 0 71.5 -13.5t58 -37t39 -56t14.5 -70.5t-14.5 -70t-39 -55t-58 -35.5t-71.5 -12.5q-39 0 -73 12.5 t-59.5 35.5t-40 55t-14.5 70zM546 1695q0 -37 25.5 -61.5t62.5 -24.5q36 0 60 24.5t24 61.5q0 39 -24 64t-60 25q-37 0 -62.5 -25t-25.5 -64z" />
<glyph unicode="&#x1fb;" d="M845 0q-10 20 -16.5 47t-11.5 58q-25 -26 -56.5 -48.5t-70 -39.5t-83 -27t-95.5 -10q-86 0 -155.5 24.5t-119 68t-76.5 102.5t-27 128q0 174 129.5 266t371.5 92h175v71q0 86 -58 136.5t-164 50.5q-48 0 -84 -11.5t-60 -31.5t-36 -47t-12 -58h-239q0 63 29.5 122.5 t86.5 106t139.5 74.5t188.5 28q96 0 178 -23.5t142 -70t94 -116t34 -162.5v-482q0 -71 10.5 -129.5t30.5 -101.5v-17h-245zM557 173q46 0 86.5 11.5t73 30t56 42.5t37.5 49v203h-152q-146 0 -215.5 -47t-69.5 -134q0 -33 11 -61.5t33.5 -49t57 -32.5t82.5 -12zM716 1788h237 l-244 -194h-156zM426 1373q0 38 14.5 70.5t40 56t59.5 37t73 13.5q38 0 71.5 -13.5t58 -37t39 -56t14.5 -70.5t-14.5 -70t-39 -55t-58 -35.5t-71.5 -12.5q-39 0 -73 12.5t-59.5 35.5t-40 55t-14.5 70zM525 1373q0 -37 25.5 -61.5t62.5 -24.5q36 0 60 24.5t24 61.5 q0 39 -24 64t-60 25q-37 0 -62.5 -25t-25.5 -64z" />
<glyph unicode="&#x1fc;" d="M1189 0h-537v340h-260l-106 -340h-249l521 1456h609v-194h-287v-412h256v-194h-256v-463h309v-193zM652 553v614l-193 -614h193zM804 1823h274l-277 -273h-182z" />
<glyph unicode="&#x1fd;" d="M882 -20q-96 0 -167 33t-117 96q-18 -26 -42.5 -49.5t-55 -41t-68 -28t-81.5 -10.5q-74 0 -131.5 22t-96.5 62.5t-59 98t-20 128.5q0 169 110 260t323 91h26v131q0 65 -24.5 100.5t-75.5 35.5q-52 0 -81.5 -31.5t-29.5 -95.5l-228 9q0 71 23 128.5t66 98t104.5 62.5 t137.5 22q75 0 135.5 -22t102.5 -65q43 42 100.5 65t129.5 22q77 0 138.5 -27t104.5 -77t66 -121.5t23 -161.5v-243h-476v-85q0 -103 48 -159.5t160 -56.5q36 0 63.5 5.5t50.5 13.5t42.5 18.5t37.5 19.5l51 -168q-16 -12 -42.5 -26t-63 -26t-83 -20t-101.5 -8zM719 642h253 v121q0 31 -8 58t-23 46.5t-37 30.5t-51 11q-38 0 -63.5 -15.5t-41.5 -43.5t-22.5 -65.5t-6.5 -80.5v-62zM406 162q24 0 50 12t47 32v270h-24q-47 0 -84 -15.5t-62.5 -41.5t-39 -60.5t-13.5 -71.5q0 -54 31.5 -89.5t94.5 -35.5zM736 1502h274l-277 -273h-182z" />
<glyph unicode="&#x1fe;" d="M1134 634q0 -129 -33 -247.5t-98.5 -209t-164 -144t-230.5 -53.5q-88 0 -159.5 24.5t-129.5 68.5l-97 -168h-167l160 277q-63 91 -94.5 207.5t-31.5 244.5v186q0 86 14.5 168t43 154.5t71 134t100 105.5t130 69t159.5 25q91 0 165 -26t134 -73l82 141h168l-146 -253 q62 -90 92.5 -204.5t31.5 -240.5v-186zM330 634q0 -54 5.5 -107.5t18.5 -104.5l441 763q-33 40 -79 63.5t-109 23.5q-81 0 -134.5 -39.5t-85 -103.5t-44 -144.5t-13.5 -162.5v-188zM893 822q-1 52 -6.5 103t-16.5 99l-441 -761q32 -38 75.5 -59.5t103.5 -21.5q82 0 136.5 40 t87.5 104t46.5 145t14.5 163v188zM695 1885h274l-277 -273h-182z" />
<glyph unicode="&#x1ff;" d="M111 551q0 117 34.5 218t99 175t157.5 116t211 42q107 0 198 -37l72 147h144l-104 -211q94 -75 143.5 -191t49.5 -259v-21q0 -118 -34 -219t-98.5 -174.5t-157.5 -115.5t-211 -42q-98 0 -180 29l-71 -146h-144l101 205q-102 73 -156 193t-54 270v21zM350 530 q0 -78 17 -145t52 -117l303 617q-23 11 -50.5 17.5t-58.5 6.5q-68 0 -118 -29t-82 -78t-47.5 -114t-15.5 -137v-21zM877 551q0 69 -14 130.5t-43 109.5l-297 -605q39 -16 92 -16q67 0 116.5 28.5t82 78t48 114.5t15.5 139v21zM656 1498h274l-277 -273h-182z" />
<glyph unicode="&#x218;" d="M905 375q0 52 -21.5 91.5t-61 69.5t-94 52.5t-118.5 41.5q-86 25 -169.5 62t-149 90.5t-106 125t-40.5 165.5t40.5 168.5t108.5 126.5t158 80t188 28q105 0 196.5 -32.5t160 -91t108.5 -140t41 -180.5h-240q-5 55 -23.5 100.5t-52 78.5t-81.5 51t-111 18q-54 0 -100 -14 t-79.5 -41t-52.5 -65t-19 -86q0 -51 26 -88.5t68 -65.5t96.5 -48.5t113.5 -37.5q91 -27 174 -66.5t146 -95t100 -128.5t37 -167q0 -97 -41 -171t-110 -124t-160 -75.5t-190 -25.5q-67 0 -133 13t-126.5 39t-112.5 64.5t-90.5 89t-60.5 113t-23 137.5h241q5 -66 29 -115 t64 -81.5t93.5 -49t118.5 -16.5q54 0 101 13t82 38.5t55 63t20 85.5zM748 -140q0 -43 -9.5 -90.5t-28 -94t-47 -89t-67.5 -75.5l-113 76q38 63 56.5 128.5t18.5 141.5v72h190v-69z" />
<glyph unicode="&#x219;" d="M860 293q0 27 -11 49.5t-39.5 41t-78 34.5t-126.5 31q-96 20 -173.5 48t-133 67t-85.5 90.5t-30 119.5q0 66 31 125.5t88.5 104.5t140 71.5t184.5 26.5q108 0 193.5 -27t144.5 -73.5t90.5 -109.5t31.5 -135h-239q0 32 -14 61.5t-42 52.5t-69.5 36.5t-95.5 13.5 t-93.5 -11.5t-65.5 -30t-38.5 -43.5t-12.5 -52t9.5 -49t35.5 -40t72 -32.5t119 -27.5q102 -18 183.5 -45t139 -66t88.5 -92.5t31 -125.5t-33 -132t-94 -103.5t-146.5 -67.5t-191.5 -24q-118 0 -208 31.5t-151 82.5t-92.5 116t-31.5 132h232q3 -50 26 -85t59 -56.5t80 -31 t89 -9.5q111 0 169 37.5t58 96.5zM709 -140q0 -43 -9.5 -90.5t-28 -94t-47 -89t-67.5 -75.5l-113 76q38 63 56.5 128.5t18.5 141.5v72h190v-69z" />
<glyph unicode="&#x21a;" d="M1180 1258h-447v-1258h-239v1258h-444v198h1130v-198zM717 -124q0 -43 -9.5 -90.5t-28 -94t-47 -89t-67.5 -75.5l-113 76q38 63 56.5 128.5t18.5 141.5v72h190v-69z" />
<glyph unicode="&#x21b;" d="M634 1344v-262h409v-178h-409v-519q0 -61 14.5 -101t40.5 -64t61 -33.5t77 -9.5q31 0 64.5 3.5t65 8t58 10t44.5 10.5l27 -165q-26 -15 -62.5 -27.5t-79.5 -20.5t-89.5 -12.5t-91.5 -4.5q-81 0 -148.5 22.5t-116 70t-76 122t-27.5 178.5v532h-264v178h264v262h239z M795 -130q0 -43 -9.5 -90.5t-28 -94t-47 -89t-67.5 -75.5l-113 76q38 63 56.5 128.5t18.5 141.5v72h190v-69z" />
<glyph unicode="&#x237;" d="M284 1082h554v-1099q0 -106 -29.5 -184.5t-86.5 -131t-139 -78.5t-187 -26q-51 0 -99 3.5t-97 13.5l14 194q15 -3 38.5 -5.5t48 -4t47 -2t34.5 -0.5q45 0 84.5 11t69 36.5t46 68t16.5 105.5v900h-314v199z" />
<glyph unicode="&#x259;" d="M608 1103q121 0 218 -40.5t164.5 -112.5t104 -170.5t36.5 -213.5v-41q0 -119 -38 -219t-104.5 -172.5t-157 -113t-194.5 -39.5q-118 0 -206.5 35.5t-147 99.5t-88 154t-29.5 198v141h724q-5 63 -26 118t-58 96t-89.5 64.5t-121.5 23.5q-57 0 -104 -7.5t-86 -20t-71.5 -30 t-61.5 -36.5l-79 157q27 23 67 46t91.5 41.5t115.5 30t141 11.5zM637 172q50 0 91 20t72.5 55t53 82.5t30.5 103.5h-482v-25q0 -48 13.5 -91t42 -75.5t73 -51t106.5 -18.5z" />
<glyph unicode="&#x2bc;" d="M760 1398q0 -50 -13 -103.5t-37 -105t-58 -98.5t-75 -83l-117 78q43 69 67 143.5t24 167.5v163h209v-162z" />
<glyph unicode="&#x2c6;" d="M831 1275v-27h-192l-150 137l-149 -137h-190v29l269 240h140z" />
<glyph unicode="&#x2c7;" d="M622 1381l146 136h205v-18l-277 -251h-148l-275 249v20h203z" />
<glyph unicode="&#x2d8;" d="M945 1449q0 -62 -22.5 -114t-64 -89t-101 -57.5t-133.5 -20.5t-133.5 20.5t-101 57.5t-64 89t-22.5 114h180q0 -28 7.5 -53t24.5 -44.5t43.5 -31t65.5 -11.5q38 0 65 11.5t43.5 31t24 44.5t7.5 53h181z" />
<glyph unicode="&#x2d9;" d="M482 1359q0 55 35 91.5t100 36.5q66 0 101 -36.5t35 -91.5q0 -54 -35 -90.5t-101 -36.5q-65 0 -100 36.5t-35 90.5z" />
<glyph unicode="&#x2da;" d="M404 1269q0 43 17 79t45.5 62.5t67 41.5t82.5 15q43 0 81 -15t66 -41.5t44 -62.5t16 -79q0 -44 -16 -79.5t-44 -61.5t-66 -40t-81 -14q-44 0 -82.5 14t-67 40t-45.5 61.5t-17 79.5zM513 1269q0 -22 8 -40.5t22.5 -32t33 -21.5t39.5 -8q42 0 70 28.5t28 73.5q0 46 -28 75 t-70 29q-21 0 -39.5 -7.5t-33 -21.5t-22.5 -33t-8 -42z" />
<glyph unicode="&#x2db;" d="M742 0q-85 -39 -124 -88t-39 -109q0 -31 16 -51t56 -20q31 0 53.5 8t37.5 15l40 -141q-28 -15 -72 -29.5t-113 -14.5q-44 0 -82 13t-66.5 38t-45 62.5t-16.5 86.5q0 39 15.5 79.5t45 78.5t72.5 72t99 60z" />
<glyph unicode="&#x2dc;" d="M844 1502q0 -46 -15.5 -88.5t-43.5 -75.5t-67.5 -52.5t-86.5 -19.5q-50 0 -84.5 14t-64.5 31t-60.5 31t-70.5 14q-19 0 -36 -7.5t-30 -21.5t-20.5 -33t-7.5 -42l-125 28q0 45 15.5 88t43 77t66.5 54.5t87 20.5q41 0 75.5 -14t67 -31t65.5 -31t72 -14q19 0 36.5 7.5 t30.5 21t20.5 33t7.5 42.5z" />
<glyph unicode="&#x2dd;" d="M764 1518h257l-306 -266h-196zM417 1518h241l-251 -266h-183z" />
<glyph unicode="&#x2f3;" d="M431 -228q0 33 13 61t35 48t51.5 31.5t63.5 11.5q33 0 62 -11.5t50 -31.5t33.5 -48t12.5 -61t-12.5 -60.5t-33.5 -47t-50 -30t-62 -10.5q-34 0 -63.5 11t-51.5 30.5t-35 46.5t-13 60zM531 -228q0 -26 18.5 -43t44.5 -17q25 0 41.5 17t16.5 43q0 28 -16.5 46t-41.5 18 q-26 0 -44.5 -18t-18.5 -46z" />
<glyph unicode="&#x300;" d="M-496 1210h-151l-198 350h207z" />
<glyph unicode="&#x301;" d="M-521 1561h204l-196 -352h-144z" />
<glyph unicode="&#x303;" d="M-186 1502q0 -46 -15.5 -88.5t-43.5 -75.5t-67.5 -52.5t-86.5 -19.5q-50 0 -84.5 14t-64.5 31t-60.5 31t-70.5 14q-19 0 -36 -7.5t-30 -21.5t-20.5 -33t-7.5 -42l-125 28q0 45 15.5 88t43 77t66.5 54.5t87 20.5q41 0 75.5 -14t67 -31t65.5 -31t72 -14q19 0 36.5 7.5 t30.5 21t20.5 33t7.5 42.5z" />
<glyph unicode="&#x309;" d="M-684 1253l-7 147q73 5 106 19t33 49q0 20 -11.5 34t-32 22.5t-48 12.5t-60.5 4l7 122q168 0 253 -52.5t85 -140.5q0 -36 -13 -62.5t-34 -44t-48 -27.5t-55 -14l-1 -69h-174z" />
<glyph unicode="&#x30f;" d="M-504 1252h-206l-300 266h261zM-207 1252h-191l-245 266h247z" />
<glyph unicode="&#x323;" d="M-737 -230q0 55 36.5 92t104.5 37t105 -37t37 -92q0 -54 -37 -90.5t-105 -36.5t-104.5 36.5t-36.5 90.5z" />
<glyph unicode="&#x384;" d="M634 1665h244l-197 -398h-117z" />
<glyph unicode="&#x385;" d="M636 1767h246l-148 -295h-145zM260 1354q0 53 35 88.5t97 35.5q61 0 96 -35.5t35 -88.5q0 -52 -35 -87t-96 -35q-62 0 -97 35t-35 87zM793 1355q0 53 35 88t97 35q61 0 96 -35t35 -88q0 -52 -35 -87.5t-96 -35.5q-62 0 -97 35.5t-35 87.5z" />
<glyph unicode="&#x386;" d="M855 338h-455l-100 -338h-248l473 1456h211l464 -1456h-247zM461 543h334l-165 571zM200 1665h244l-197 -398h-117z" />
<glyph unicode="&#x387;" d="M559 716q0 28 9.5 52.5t27 42.5t43.5 28t59 10t59 -10t44 -28t27.5 -42.5t9.5 -52.5t-9.5 -52t-27.5 -42t-44 -28t-59 -10t-59 10t-43.5 28t-27 42t-9.5 52z" />
<glyph unicode="&#x388;" horiz-adv-x="1329" d="M1102 653h-599v-457h701v-196h-942v1456h935v-198h-694v-411h599v-194zM6 1666h244l-197 -398h-117z" />
<glyph unicode="&#x389;" horiz-adv-x="1329" d="M1192 0h-234v650h-495v-650h-233v1456h233v-609h495v609h234v-1456zM10 1665h244l-197 -398h-117z" />
<glyph unicode="&#x38a;" horiz-adv-x="1329" d="M281 1456h866v-199h-315v-1059h315v-198h-866v198h308v1059h-308v199zM25 1667h244l-197 -398h-117z" />
<glyph unicode="&#x38c;" horiz-adv-x="1249" d="M1156 634q0 -129 -33 -247.5t-98.5 -209t-164 -144t-230.5 -53.5q-131 0 -228 54t-161.5 144.5t-97 208.5t-32.5 247v186q0 86 14.5 168t43 154.5t71 134t100 105.5t130 69t159.5 25q132 0 230.5 -54t164.5 -144.5t99 -209.5t33 -248v-186zM915 822q-1 82 -15 163 t-47 144.5t-87.5 103t-136.5 39.5q-81 0 -134.5 -39.5t-85 -103.5t-44 -144.5t-13.5 -162.5v-188q1 -82 14 -162.5t44.5 -145t85 -104.5t134.5 -40q82 0 136.5 40t87.5 104t46.5 145t14.5 163v188zM11 1665h244l-197 -398h-117z" />
<glyph unicode="&#x38e;" horiz-adv-x="1329" d="M716 760l303 696h268l-454 -933l-2 -523h-233l-2 529l-451 927h268zM-62 1665h244l-197 -398h-117z" />
<glyph unicode="&#x38f;" horiz-adv-x="1249" d="M697 238q49 13 88 53.5t66.5 108t42.5 163t15 220.5v66q0 214 -73 323t-200 109q-126 0 -199 -109t-73 -323v-66q0 -251 59 -385t160 -160v-238h-463v194h261q-60 45 -110 109t-85.5 141t-55.5 163t-20 176v64q0 139 38.5 254.5t107.5 199t166 129.5t214 46t214.5 -46 t167 -129.5t108 -199t38.5 -254.5v-64q0 -90 -19.5 -176.5t-55 -163t-85 -140.5t-109.5 -109h266v-194h-464v238zM33 1665h244l-197 -398h-117z" />
<glyph unicode="&#x390;" d="M179 1082h560v-738q0 -59 12.5 -92.5t33.5 -50t48.5 -20.5t57.5 -4q45 0 84.5 15t66.5 32l45 -169q-32 -24 -63 -39t-61.5 -23t-61.5 -11t-63 -3q-82 0 -145 19t-106.5 62t-66 113.5t-22.5 173.5v536h-319v199zM604 1694h246l-148 -295h-145zM228 1281q0 53 35 88.5 t97 35.5q61 0 96 -35.5t35 -88.5q0 -52 -35 -87t-96 -35q-62 0 -97 35t-35 87zM761 1282q0 53 35 88t97 35q61 0 96 -35t35 -88q0 -52 -35 -87.5t-96 -35.5q-62 0 -97 35.5t-35 87.5z" />
<glyph unicode="&#x391;" d="M855 338h-455l-100 -338h-248l473 1456h211l464 -1456h-247zM461 543h334l-165 571z" />
<glyph unicode="&#x392;" d="M148 0v1456h465q105 -1 196.5 -24t160 -71t107.5 -122.5t38 -176.5q-1 -108 -60 -184.5t-159 -118.5q61 -17 108.5 -48.5t79.5 -75.5t49 -97.5t17 -113.5q0 -104 -38 -183t-105.5 -132t-160 -80.5t-199.5 -28.5h-499zM389 660v-464h262q57 1 104 17.5t81 45.5t53.5 71 t19.5 94q0 55 -17 98.5t-49 73.5t-78 46.5t-103 17.5h-273zM389 843h230q54 1 100.5 14.5t80.5 40t54 65t20 88.5q0 55 -19 94t-53.5 64t-81.5 36.5t-103 12.5h-228v-415z" />
<glyph unicode="&#x393;" d="M1078 1262h-677v-1262h-241v1456h918v-194z" />
<glyph unicode="&#x395;" d="M1002 653h-599v-457h701v-196h-942v1456h935v-198h-694v-411h599v-194z" />
<glyph unicode="&#x396;" d="M383 196h735v-196h-1017l-1 162l712 1096h-706v198h989l1 -158z" />
<glyph unicode="&#x397;" d="M1092 0h-234v650h-495v-650h-233v1456h233v-609h495v609h234v-1456z" />
<glyph unicode="&#x398;" d="M831 635h-424v192h424v-192zM1142 634q0 -129 -33 -247.5t-98.5 -209t-164 -144t-230.5 -53.5q-131 0 -228 54t-161.5 144.5t-97 208.5t-32.5 247v186q0 86 14.5 168t43 154.5t71 134t100 105.5t130 69t159.5 25q132 0 230.5 -54t164.5 -144.5t99 -209.5t33 -248v-186z M901 822q-1 82 -15 163t-47 144.5t-87.5 103t-136.5 39.5q-81 0 -134.5 -39.5t-85 -103.5t-44 -144.5t-13.5 -162.5v-188q1 -82 14 -162.5t44.5 -145t85 -104.5t134.5 -40q82 0 136.5 40t87.5 104t46.5 145t14.5 163v188z" />
<glyph unicode="&#x399;" d="M181 1456h866v-199h-315v-1059h315v-198h-866v198h308v1059h-308v199z" />
<glyph unicode="&#x39a;" d="M546 633l-156 -175v-458h-243v1456h243v-682l133 173l383 509h293l-495 -639l520 -817h-288z" />
<glyph unicode="&#x39b;" d="M615 1118l-331 -1118h-248l466 1456h228l466 -1456h-249z" />
<glyph unicode="&#x39c;" d="M433 1456l181 -629l200 629h298v-1456h-226v500l14 638l-224 -698h-126l-203 674l14 -614v-500h-226v1456h298z" />
<glyph unicode="&#x39d;" d="M1091 0h-242l-474 1002l-1 -1002h-243v1456h243l472 -999l2 999h243v-1456z" />
<glyph unicode="&#x39e;" d="M132 193h956v-193h-956v193zM227 843h760v-189h-760v189zM142 1456h923v-194h-923v194z" />
<glyph unicode="&#x39f;" d="M1136 634q0 -129 -33 -247.5t-98.5 -209t-164 -144t-230.5 -53.5q-131 0 -228 54t-161.5 144.5t-97 208.5t-32.5 247v186q0 86 14.5 168t43 154.5t71 134t100 105.5t130 69t159.5 25q132 0 230.5 -54t164.5 -144.5t99 -209.5t33 -248v-186zM895 822q-1 82 -15 163 t-47 144.5t-87.5 103t-136.5 39.5q-81 0 -134.5 -39.5t-85 -103.5t-44 -144.5t-13.5 -162.5v-188q1 -82 14 -162.5t44.5 -145t85 -104.5t134.5 -40q82 0 136.5 40t87.5 104t46.5 145t14.5 163v188z" />
<glyph unicode="&#x3a0;" d="M1082 0h-241v1262h-460v-1262h-241v1456h942v-1456z" />
<glyph unicode="&#x3a1;" d="M407 558v-558h-240v1456h487q109 -1 201.5 -32.5t159.5 -90t104.5 -142t37.5 -188.5q0 -102 -37.5 -184t-104.5 -140t-159.5 -89t-201.5 -32h-247zM407 752h247q61 0 109 18.5t82 51.5t52 79t18 100q0 57 -18 105t-52 82.5t-82 53.5t-109 20h-247v-510z" />
<glyph unicode="&#x3a3;" d="M828 718l-405 -525h717v-192h-1029v151l463 577l-463 575v152h990v-194h-677l404 -524v-20z" />
<glyph unicode="&#x3a4;" d="M1180 1258h-447v-1258h-239v1258h-444v198h1130v-198z" />
<glyph unicode="&#x3a5;" d="M616 760l303 696h268l-454 -933l-2 -523h-233l-2 529l-451 927h268z" />
<glyph unicode="&#x3a6;" d="M759 1254q99 -10 182 -52t143 -111t94 -163t34 -206t-34 -205t-94 -161.5t-143 -110.5t-182 -52v-193h-240v192q-99 9 -182.5 51t-143.5 110.5t-93.5 161.5t-33.5 205t33.5 206t93.5 164t143.5 112.5t182.5 51.5v202h240v-202zM303 720q0 -140 56.5 -224t159.5 -102v658 q-103 -19 -159.5 -105t-56.5 -227zM973 722q0 140 -56 225.5t-158 104.5v-658q102 19 158 103.5t56 224.5z" />
<glyph unicode="&#x3a7;" d="M624 914l280 542h283l-415 -722l425 -734h-281l-288 551l-288 -551h-284l425 734l-414 722h281z" />
<glyph unicode="&#x3a8;" d="M763 528q88 23 138.5 103.5t50.5 230.5v594h241v-594q0 -122 -31.5 -215.5t-88 -159.5t-135.5 -105t-175 -51v-331h-240v330q-99 11 -180 49t-138.5 104t-89.5 160.5t-32 218.5v594h240v-594q0 -150 54 -230.5t146 -103.5v928h240v-928z" />
<glyph unicode="&#x3aa;" d="M181 1456h866v-199h-315v-1059h315v-198h-866v198h308v1059h-308v199zM224 1715q0 50 33.5 84t92.5 34t92.5 -34t33.5 -84t-33.5 -83.5t-92.5 -33.5t-92.5 33.5t-33.5 83.5zM679 1714q0 50 33 83.5t92 33.5t92.5 -33.5t33.5 -83.5t-33.5 -84t-92.5 -34t-92 34t-33 84z " />
<glyph unicode="&#x3ab;" d="M616 760l303 696h268l-454 -933l-2 -523h-233l-2 529l-451 927h268zM263 1715q0 50 33.5 84t92.5 34t92.5 -34t33.5 -84t-33.5 -83.5t-92.5 -33.5t-92.5 33.5t-33.5 83.5zM718 1714q0 50 33 83.5t92 33.5t92.5 -33.5t33.5 -83.5t-33.5 -84t-92.5 -34t-92 34t-33 84z" />
<glyph unicode="&#x3ac;" d="M1020 1082v-781q0 -36 5.5 -59t15.5 -36.5t23.5 -18.5t29.5 -5q27 0 47 5l24 -177q-32 -20 -62.5 -25.5t-64.5 -5.5q-81 0 -138.5 32.5t-87.5 104.5q-51 -66 -123.5 -101t-170.5 -35q-96 0 -171 39t-126 108.5t-77.5 166t-26.5 211.5v21q0 126 26.5 232t77.5 182.5 t126 119t173 42.5q97 0 168.5 -36.5t122.5 -102.5l54 119h155zM356 505q0 -70 12 -131t38.5 -106t69 -71t103.5 -26q73 0 122 27.5t80 74.5v28v509q-32 45 -81 72t-119 27q-61 0 -104 -30.5t-70 -83t-39 -122t-12 -147.5v-21zM622 1676h244l-197 -398h-117z" />
<glyph unicode="&#x3ad;" d="M134 306q0 92 54 155.5t161 95.5q-95 36 -145.5 96.5t-50.5 132.5q0 77 34 136t98 98.5t156 60t208 20.5q99 0 187.5 -22.5t154.5 -64.5t104.5 -102.5t38.5 -136.5h-239q0 31 -19.5 56.5t-53.5 44.5t-80 29.5t-99 10.5q-71 0 -119.5 -12t-77.5 -32t-41.5 -45.5 t-12.5 -51.5q0 -30 12 -55.5t40.5 -43.5t75 -28t115.5 -10h240v-172h-240q-137 0 -199.5 -35.5t-62.5 -115.5q0 -30 15.5 -57t48.5 -48t84 -33.5t121 -12.5q63 0 113 13t85.5 34.5t54 50t18.5 59.5h238q0 -89 -43.5 -153.5t-114.5 -106t-161 -61.5t-183 -20 q-116 0 -210.5 22t-162.5 64t-105 102.5t-37 137.5zM638 1675h244l-197 -398h-117z" />
<glyph unicode="&#x3ae;" d="M363 1082l13 -156q56 83 139.5 129.5t191.5 46.5q86 0 156 -22t119.5 -71.5t76.5 -129.5t27 -195v-1099h-240v1097q0 121 -56 174t-165 53q-85 0 -144.5 -28.5t-97.5 -77.5v-803h-239v1082h219zM635 1676h244l-197 -398h-117z" />
<glyph unicode="&#x3af;" d="M179 1082h560v-738q0 -59 12.5 -92.5t33.5 -50t48.5 -20.5t57.5 -4q45 0 84.5 15t66.5 32l45 -169q-32 -24 -63 -39t-61.5 -23t-61.5 -11t-63 -3q-82 0 -145 19t-106.5 62t-66 113.5t-22.5 173.5v536h-319v199zM624 1656h244l-197 -398h-117z" />
<glyph unicode="&#x3b0;" d="M377 1082v-619q0 -81 17.5 -137t48.5 -90.5t74 -50t94 -15.5q67 0 114.5 35t78 91.5t44.5 127.5t14 142q-3 134 -35 262.5t-80 253.5h239q23 -46 44 -101.5t36.5 -120t25 -138.5t9.5 -156q0 -119 -26 -225.5t-83 -187t-148.5 -127.5t-222.5 -47q-113 0 -202.5 28.5 t-152 88t-95.5 151t-33 218.5v617h239zM573 1700h246l-148 -295h-145zM197 1287q0 53 35 88.5t97 35.5q61 0 96 -35.5t35 -88.5q0 -52 -35 -87t-96 -35q-62 0 -97 35t-35 87zM730 1288q0 53 35 88t97 35q61 0 96 -35t35 -88q0 -52 -35 -87.5t-96 -35.5q-62 0 -97 35.5 t-35 87.5z" />
<glyph unicode="&#x3b1;" d="M1020 1082v-781q0 -36 5.5 -59t15.5 -36.5t23.5 -18.5t29.5 -5q27 0 47 5l24 -177q-32 -20 -62.5 -25.5t-64.5 -5.5q-81 0 -138.5 32.5t-87.5 104.5q-51 -66 -123.5 -101t-170.5 -35q-96 0 -171 39t-126 108.5t-77.5 166t-26.5 211.5v21q0 126 26.5 232t77.5 182.5 t126 119t173 42.5q97 0 168.5 -36.5t122.5 -102.5l54 119h155zM356 505q0 -70 12 -131t38.5 -106t69 -71t103.5 -26q73 0 122 27.5t80 74.5v28v509q-32 45 -81 72t-119 27q-61 0 -104 -30.5t-70 -83t-39 -122t-12 -147.5v-21z" />
<glyph unicode="&#x3b2;" d="M630 1477q102 0 184.5 -28t141 -79.5t90.5 -124.5t32 -163q0 -94 -49.5 -171.5t-137.5 -125.5q121 -45 185.5 -139.5t64.5 -224.5q0 -106 -33 -188t-92 -138.5t-142.5 -86t-183.5 -29.5q-75 0 -149.5 20t-137.5 63v-454h-239v1448q0 90 37 167.5t100.5 133.5t148.5 88 t180 32zM626 861q57 0 97.5 15.5t66 43t37.5 67t12 87.5q0 40 -13.5 78t-39.5 67t-65 47t-91 18q-48 0 -89.5 -17t-72 -47t-48 -72t-17.5 -92v-802q42 -38 104.5 -61t142.5 -23q60 0 107 19t79 53t49 79.5t17 99.5q0 51 -15 98t-43.5 82t-71.5 56t-98 21h-123v183h75z" />
<glyph unicode="&#x3b3;" d="M945 1082h247l-450 -1045v-454h-239v458l-450 1041h248l308 -776l17 -74l19 77z" />
<glyph unicode="&#x3b4;" d="M250 1258q0 72 27 129.5t77.5 97.5t123.5 61t166 21q79 0 155 -23t154 -58l-44 -161q-20 7 -48.5 17t-62.5 19t-71 15.5t-75 6.5q-79 0 -124 -33t-45 -86q0 -17 7.5 -36t28.5 -40t59 -42.5t99 -43.5q232 -78 347.5 -217.5t115.5 -348.5v-20q0 -114 -34.5 -212 t-100.5 -170t-162 -113t-218 -41q-124 0 -220.5 40.5t-163 111.5t-101 168t-34.5 210v20q0 85 26.5 159.5t72.5 133t107 98.5t130 56l3 12q-91 40 -143 108.5t-52 160.5zM345 522q0 -72 16.5 -136t50.5 -112t87 -76t126 -28q72 0 124 28t85.5 76t50 112t16.5 136v20 q0 57 -19.5 114t-55.5 105t-87 82.5t-114 46.5q-72 0 -125 -28.5t-87.5 -76.5t-51 -111t-16.5 -132v-20z" />
<glyph unicode="&#x3b5;" d="M134 306q0 92 54 155.5t161 95.5q-95 36 -145.5 96.5t-50.5 132.5q0 77 34 136t98 98.5t156 60t208 20.5q99 0 187.5 -22.5t154.5 -64.5t104.5 -102.5t38.5 -136.5h-239q0 31 -19.5 56.5t-53.5 44.5t-80 29.5t-99 10.5q-71 0 -119.5 -12t-77.5 -32t-41.5 -45.5 t-12.5 -51.5q0 -30 12 -55.5t40.5 -43.5t75 -28t115.5 -10h240v-172h-240q-137 0 -199.5 -35.5t-62.5 -115.5q0 -30 15.5 -57t48.5 -48t84 -33.5t121 -12.5q63 0 113 13t85.5 34.5t54 50t18.5 59.5h238q0 -89 -43.5 -153.5t-114.5 -106t-161 -61.5t-183 -20 q-116 0 -210.5 22t-162.5 64t-105 102.5t-37 137.5z" />
<glyph unicode="&#x3b6;" d="M1070 1456v-144l-408 -420q-68 -63 -121 -117.5t-89.5 -109t-55.5 -114.5t-19 -133q0 -47 9.5 -81t30 -58t52 -39.5t76.5 -24.5l210 -44q60 -14 111 -30t87.5 -42t57 -66t20.5 -102q-1 -41 -20.5 -86t-49 -88t-64.5 -80t-68 -62l-124 99q48 54 71 95.5t22 78.5 q1 33 -29.5 60.5t-105.5 41.5l-183 33q-94 17 -159.5 48.5t-106 77.5t-58.5 107.5t-18 139.5q0 135 87.5 280.5t272.5 314.5l261 273h-661v192h972z" />
<glyph unicode="&#x3b7;" d="M363 1082l13 -156q56 83 139.5 129.5t191.5 46.5q86 0 156 -22t119.5 -71.5t76.5 -129.5t27 -195v-1099h-240v1097q0 121 -56 174t-165 53q-85 0 -144.5 -28.5t-97.5 -77.5v-803h-239v1082h219z" />
<glyph unicode="&#x3b8;" d="M1073 537q0 -137 -31 -241t-89 -174.5t-140.5 -106.5t-185.5 -36q-102 0 -185 36t-141.5 106.5t-90 174.5t-31.5 241v377q0 137 31.5 242t89.5 176.5t140.5 108t184.5 36.5q103 0 186 -36.5t141 -108t89.5 -176.5t31.5 -242v-377zM834 644h-415v-151q0 -86 13 -147.5 t39 -100.5t65 -57t91 -18t90.5 18t64.5 57t39 100.5t13 147.5v151zM419 832h415v129q0 171 -52 247t-157 76q-103 0 -154.5 -76t-51.5 -247v-129z" />
<glyph unicode="&#x3b9;" d="M179 1082h560v-738q0 -59 12.5 -92.5t33.5 -50t48.5 -20.5t57.5 -4q45 0 84.5 15t66.5 32l45 -169q-32 -24 -63 -39t-61.5 -23t-61.5 -11t-63 -3q-82 0 -145 19t-106.5 62t-66 113.5t-22.5 173.5v536h-319v199z" />
<glyph unicode="&#x3ba;" d="M565 450l-157 -135v-315h-239v1082h239v-496l105 120l340 376h295l-419 -463l445 -619h-304z" />
<glyph unicode="&#x3bb;" d="M306 0h-262l387 1042l-42 107q-13 34 -31 68t-41 60.5t-51.5 43t-62.5 16.5q-15 0 -35.5 -2t-37.5 -3l-3 179q13 3 29.5 6.5t34.5 6.5t36.5 4.5t34.5 1.5q73 0 128.5 -27.5t95.5 -68.5t66.5 -89t42.5 -88l353 -914q10 -32 24.5 -61.5t32.5 -52t39 -36t45 -13.5h13t9 0.5 t9 1.5t14 2l-4 -189q-15 -6 -36 -9.5t-36 -3.5q-68 0 -120.5 20.5t-93 57.5t-70.5 89t-53 114l-180 488l-31 -135z" />
<glyph unicode="&#x3bc;" d="M417 1082v-620q0 -91 15 -147.5t41.5 -88t62.5 -43t79 -11.5q91 0 145.5 32.5t83.5 90.5v787h239v-1082h-219l-7 88q-44 -52 -103.5 -80.5t-137.5 -28.5q-122 0 -199 56v-451h-239v1498h239z" />
<glyph unicode="&#x3bd;" d="M598 302l17 -80l18 79l262 781h247l-424 -1082h-206l-428 1082h247z" />
<glyph unicode="&#x3be;" d="M1031 1245l-60 15t-55 11.5t-53.5 7t-56.5 2.5q-90 0 -151 -13t-99 -35t-54.5 -52t-16.5 -63q0 -41 17 -75t56.5 -59t104.5 -38.5t161 -13.5h146v-195h-143q-213 0 -313.5 -71.5t-100.5 -215.5q0 -59 24.5 -104t67 -77.5t99.5 -53t123 -31.5l107 -24q58 -14 109 -28.5 t88 -39.5t58 -65t21 -105q0 -41 -19.5 -86t-49 -88t-65 -80t-68.5 -62l-120 99q24 27 40.5 49t27.5 42.5t16 41t5 44.5q0 39 -32.5 61t-102.5 39l-59 15q-121 27 -215.5 58.5t-160 81.5t-99.5 124.5t-34 186.5q0 146 86 243t245 143q-125 40 -192 111.5t-67 168.5 q0 85 36.5 152.5t106.5 114t171.5 71t231.5 24.5q82 0 150.5 -12t124.5 -32z" />
<glyph unicode="&#x3bf;" d="M111 551q0 117 34.5 218t99 175t157.5 116t211 42q119 0 212.5 -42t158 -116t98.5 -175t34 -218v-21q0 -118 -34 -219t-98.5 -174.5t-157.5 -115.5t-211 -42q-119 0 -212.5 42t-158 115.5t-99 174.5t-34.5 219v21zM350 530q0 -74 15.5 -139t48 -114.5t82.5 -78t119 -28.5 q67 0 116.5 28.5t82 78t48 114.5t15.5 139v21q0 72 -15.5 137t-48 114t-82 78t-118.5 29q-68 0 -118 -29t-82 -78t-47.5 -114t-15.5 -137v-21z" />
<glyph unicode="&#x3c0;" d="M1147 894h-144v-599q0 -41 7 -65t19 -36t29.5 -15t38.5 -3q29 0 51.5 7.5t39.5 17.5l45 -164q-55 -37 -103.5 -47t-98.5 -10q-65 0 -115 15.5t-84 52t-51 96t-17 148.5v602h-301v-894h-239v894h-130v188h1053v-188z" />
<glyph unicode="&#x3c1;" d="M1109 505q0 -115 -27 -211.5t-80 -166.5t-131 -109t-179 -39t-177 33t-130 94v-522h-239v991q0 123 37 221t102 166t155 104t195 36q118 0 206.5 -42.5t148 -119t89.5 -182.5t30 -232v-21zM870 526q0 78 -13 147.5t-41.5 122t-74.5 83t-112 30.5q-65 0 -111 -31 t-75.5 -80t-43.5 -111t-14 -123l-1 -1h1v-266q34 -57 91 -92t147 -35q66 0 113 26t77 71.5t43.5 106.5t13.5 131v21z" />
<glyph unicode="&#x3c2;" d="M608 1102q104 0 190.5 -27.5t149 -79.5t97.5 -128t35 -172h-226q0 44 -14.5 83t-45 68t-77 46t-109.5 17q-73 0 -123.5 -30.5t-82.5 -80t-46.5 -112.5t-14.5 -128v-36q0 -66 17.5 -122.5t55 -100t95.5 -72.5t140 -39q97 -14 171 -32.5t124 -48.5t76.5 -75.5t27.5 -112.5 q0 -64 -25.5 -117t-66 -96.5t-92 -76.5t-104.5 -56l-102 142q22 9 49.5 25t51.5 38.5t40.5 51.5t16.5 65q0 46 -51 71t-151 36q-260 40 -386 173.5t-126 346.5v36q0 111 33 210t97.5 173t158.5 117.5t217 43.5z" />
<glyph unicode="&#x3c3;" d="M1158 888h-265q85 -67 135 -163.5t50 -214.5v-21q0 -102 -32.5 -194.5t-95 -162.5t-153 -111.5t-207.5 -41.5q-119 0 -211 42t-156 115.5t-97 174.5t-33 219v21q0 113 33 210t96 168t155 112t210 41h571v-194zM333 530q0 -74 14.5 -139t45 -114.5t79.5 -78t118 -28.5 q66 0 113 28.5t77.5 78t44.5 114.5t14 139v21q0 68 -14 129t-44.5 107.5t-78 73.5t-114.5 27q-68 0 -116.5 -27t-79 -73.5t-45 -107.5t-14.5 -129v-21z" />
<glyph unicode="&#x3c4;" d="M1055 883h-344v-529q0 -63 12 -98.5t33 -53.5t49 -22.5t60 -4.5q48 0 85.5 13t68.5 29l38 -173q-32 -20 -62.5 -33t-60.5 -20t-61 -9.5t-64 -2.5q-80 0 -142.5 19.5t-106 64.5t-66 118t-22.5 180v522h-355v199h938v-199z" />
<glyph unicode="&#x3c5;" d="M377 1082v-619q0 -81 17.5 -137t48.5 -90.5t74 -50t94 -15.5q67 0 114.5 35t78 91.5t44.5 127.5t14 142q-3 134 -35 262.5t-80 253.5h239q23 -46 44 -101.5t36.5 -120t25 -138.5t9.5 -156q0 -119 -26 -225.5t-83 -187t-148.5 -127.5t-222.5 -47q-113 0 -202.5 28.5 t-152 88t-95.5 151t-33 218.5v617h239z" />
<glyph unicode="&#x3c6;" d="M513 -11q-116 19 -197 72t-131.5 130t-73 171.5t-22.5 195.5q0 171 63 306.5t179 223.5l148 -146q-39 -40 -67 -86.5t-46 -96.5t-27 -101t-11 -100q0 -60 9.5 -116.5t31.5 -105.5t57.5 -86t86.5 -58v624q0 57 19.5 107t55.5 86.5t88 57.5t117 21q92 0 165.5 -44 t124.5 -118t78.5 -171.5t27.5 -204.5q0 -100 -23.5 -193.5t-75.5 -169.5t-135 -128.5t-202 -70.5v-466h-240v467zM753 189q55 20 92.5 57t60.5 85.5t33.5 104.5t10.5 114q-2 69 -11 131.5t-27 110t-44 75.5t-60 28q-29 0 -42 -20t-13 -53v-633z" />
<glyph unicode="&#x3c7;" d="M628 716l258 366h266l-382 -533l394 -549h-265l-268 379l-267 -379h-267l394 549l-382 533h265z" />
<glyph unicode="&#x3c8;" d="M745 1082v-894q60 20 101 59.5t67 91.5t37.5 113t11.5 126q-1 131 -23 257t-54 247h235q32 -91 56.5 -216.5t24.5 -287.5q0 -107 -24 -206t-78 -179t-141 -134.5t-213 -71.5v-465h-239v467q-99 16 -178 60t-134.5 118t-85 180t-29.5 246v489h240v-491q0 -89 13.5 -156.5 t38.5 -116t59 -80t76 -47.5v891h239z" />
<glyph unicode="&#x3c9;" d="M402 1082q-44 -125 -71.5 -253.5t-29.5 -262.5q0 -78 4.5 -149.5t14.5 -126t26.5 -87t40.5 -32.5q23 0 43 16.5t35 53t23.5 95t8.5 143.5v323h247v-323q0 -85 8.5 -143.5t23 -95t34.5 -53t43 -16.5q24 0 41 32t27 86.5t14.5 126t4.5 150.5q-2 134 -29.5 262.5 t-71.5 253.5h239q20 -46 38.5 -101.5t32.5 -120t22 -138.5t8 -156q0 -119 -16.5 -225.5t-53.5 -186.5t-97 -127t-148 -47q-84 0 -145.5 49.5t-98.5 145.5q-37 -96 -98.5 -145.5t-144.5 -49.5q-88 0 -148.5 47t-97.5 127t-53 186.5t-16 225.5q0 165 30.5 294.5t70.5 221.5 h239z" />
<glyph unicode="&#x3ca;" d="M179 1082h560v-738q0 -59 12.5 -92.5t33.5 -50t48.5 -20.5t57.5 -4q45 0 84.5 15t66.5 32l45 -169q-32 -24 -63 -39t-61.5 -23t-61.5 -11t-63 -3q-82 0 -145 19t-106.5 62t-66 113.5t-22.5 173.5v536h-319v199zM268 1372q0 50 33.5 84t92.5 34t92.5 -34t33.5 -84 t-33.5 -83.5t-92.5 -33.5t-92.5 33.5t-33.5 83.5zM723 1371q0 50 33 83.5t92 33.5t92.5 -33.5t33.5 -83.5t-33.5 -84t-92.5 -34t-92 34t-33 84z" />
<glyph unicode="&#x3cb;" d="M377 1082v-619q0 -81 17.5 -137t48.5 -90.5t74 -50t94 -15.5q67 0 114.5 35t78 91.5t44.5 127.5t14 142q-3 134 -35 262.5t-80 253.5h239q23 -46 44 -101.5t36.5 -120t25 -138.5t9.5 -156q0 -119 -26 -225.5t-83 -187t-148.5 -127.5t-222.5 -47q-113 0 -202.5 28.5 t-152 88t-95.5 151t-33 218.5v617h239zM237 1378q0 50 33.5 84t92.5 34t92.5 -34t33.5 -84t-33.5 -83.5t-92.5 -33.5t-92.5 33.5t-33.5 83.5zM692 1377q0 50 33 83.5t92 33.5t92.5 -33.5t33.5 -83.5t-33.5 -84t-92.5 -34t-92 34t-33 84z" />
<glyph unicode="&#x3cc;" d="M111 551q0 117 34.5 218t99 175t157.5 116t211 42q119 0 212.5 -42t158 -116t98.5 -175t34 -218v-21q0 -118 -34 -219t-98.5 -174.5t-157.5 -115.5t-211 -42q-119 0 -212.5 42t-158 115.5t-99 174.5t-34.5 219v21zM350 530q0 -74 15.5 -139t48 -114.5t82.5 -78t119 -28.5 q67 0 116.5 28.5t82 78t48 114.5t15.5 139v21q0 72 -15.5 137t-48 114t-82 78t-118.5 29q-68 0 -118 -29t-82 -78t-47.5 -114t-15.5 -137v-21zM617 1676h244l-197 -398h-117z" />
<glyph unicode="&#x3cd;" d="M377 1082v-619q0 -81 17.5 -137t48.5 -90.5t74 -50t94 -15.5q67 0 114.5 35t78 91.5t44.5 127.5t14 142q-3 134 -35 262.5t-80 253.5h239q23 -46 44 -101.5t36.5 -120t25 -138.5t9.5 -156q0 -119 -26 -225.5t-83 -187t-148.5 -127.5t-222.5 -47q-113 0 -202.5 28.5 t-152 88t-95.5 151t-33 218.5v617h239zM593 1662h244l-197 -398h-117z" />
<glyph unicode="&#x3ce;" d="M402 1082q-44 -125 -71.5 -253.5t-29.5 -262.5q0 -78 4.5 -149.5t14.5 -126t26.5 -87t40.5 -32.5q23 0 43 16.5t35 53t23.5 95t8.5 143.5v323h247v-323q0 -85 8.5 -143.5t23 -95t34.5 -53t43 -16.5q24 0 41 32t27 86.5t14.5 126t4.5 150.5q-2 134 -29.5 262.5 t-71.5 253.5h239q20 -46 38.5 -101.5t32.5 -120t22 -138.5t8 -156q0 -119 -16.5 -225.5t-53.5 -186.5t-97 -127t-148 -47q-84 0 -145.5 49.5t-98.5 145.5q-37 -96 -98.5 -145.5t-144.5 -49.5q-88 0 -148.5 47t-97.5 127t-53 186.5t-16 225.5q0 165 30.5 294.5t70.5 221.5 h239zM624 1663h244l-197 -398h-117z" />
<glyph unicode="&#x3d1;" d="M1204 601q-56 -20 -127 -32v-123q0 -110 -33 -196.5t-93.5 -146.5t-145.5 -91.5t-188 -31.5q-105 0 -191.5 34t-148 95.5t-95 147t-33.5 189.5v295l233 1v-296q0 -61 16.5 -110t47.5 -84t75.5 -54t101.5 -19q99 0 154 67.5t55 199.5v127q-105 19 -191.5 65t-148 113 t-95 152t-33.5 183v19q0 87 26.5 156t74.5 117t114 73t145 25q82 0 147 -26t111 -76t70.5 -123t24.5 -166v-311q32 4 61.5 9.5t57.5 12.5zM596 1091q0 -53 15 -100.5t45 -87.5t74 -70t102 -47v312q0 91 -29 131t-86 40q-26 0 -48.5 -9t-38.5 -28t-25 -49t-9 -72v-20z" />
<glyph unicode="&#x3d2;" d="M828 1219q27 69 58.5 117.5t67.5 79t76 44.5t85 14q31 0 61 -5t57 -19l-23 -189q-4 3 -16.5 4.5t-26.5 1.5q-32 0 -59.5 -16t-44.5 -52l-297 -666v-533h-239v536l-295 663q-17 36 -45 52t-60 16q-13 0 -25.5 -1.5t-16.5 -4.5l-23 189q27 14 56.5 19t61.5 5q45 0 84.5 -13 t75 -42.5t66.5 -78t59 -118.5l165 -406l17 -73l17 72z" />
<glyph unicode="&#x3d6;" d="M1225 901h-124q32 -101 51.5 -221t19.5 -254q0 -95 -16 -176.5t-52 -141.5t-95 -94t-144 -34q-86 0 -149 51t-101 149q-37 -98 -100 -149t-149 -51t-144.5 34t-94.5 94t-52 141.5t-16 176.5q0 134 19.5 254t50.5 221h-106v181h1202v-181zM933 426q-3 118 -23.5 238 t-54.5 237h-478q-35 -117 -56 -237t-23 -238q0 -52 4 -98t13 -81t24 -55.5t38 -20.5q25 0 46 16.5t36.5 53t24.5 95t9 143.5v227h246v-227q0 -85 9 -143.5t24.5 -95t37 -53t45.5 -16.5q22 0 37 20t24 55t13 81t4 99z" />
<glyph unicode="&#x400;" d="M1002 653h-599v-457h701v-196h-942v1456h935v-198h-694v-411h599v-194zM735 1548h-190l-259 273h273z" />
<glyph unicode="&#x401;" d="M1002 653h-599v-457h701v-196h-942v1456h935v-198h-694v-411h599v-194zM279 1710q0 50 33.5 84t92.5 34t92.5 -34t33.5 -84t-33.5 -83.5t-92.5 -33.5t-92.5 33.5t-33.5 83.5zM734 1709q0 50 33 83.5t92 33.5t92.5 -33.5t33.5 -83.5t-33.5 -84t-92.5 -34t-92 34t-33 84z " />
<glyph unicode="&#x402;" d="M1099 1262h-498v-413q20 2 40.5 3t46.5 1q110 0 198 -29t150 -86t95 -141.5t33 -194.5q0 -90 -24.5 -166.5t-76.5 -132t-133 -86.5t-194 -31l-2 183q60 0 97 18.5t58 49.5t28 72t7 86q-1 124 -60.5 191t-182.5 67q-24 0 -42.5 -1.5t-37.5 -2.5v-649h-241v1262h-324v194 h1063v-194z" />
<glyph unicode="&#x403;" d="M1078 1262h-677v-1262h-241v1456h918v-194zM703 1818h274l-277 -273h-182z" />
<glyph unicode="&#x404;" d="M1145 447q-9 -105 -47 -191t-103.5 -147.5t-157 -95t-206.5 -33.5q-120 0 -216.5 42t-164 120t-104 188.5t-36.5 246.5v302q0 136 37 246.5t104.5 189t162 121t210.5 42.5q120 0 213 -32.5t158 -94t102.5 -150.5t47.5 -202h-240q-7 70 -25.5 123.5t-52 89.5t-83.5 54 t-120 18q-66 0 -117 -27.5t-86 -79.5t-53 -127t-18 -169v-51h521v-194h-521v-59q0 -197 72 -301t209 -104q128 0 193.5 66.5t79.5 208.5h241z" />
<glyph unicode="&#x405;" d="M905 375q0 52 -21.5 91.5t-61 69.5t-94 52.5t-118.5 41.5q-86 25 -169.5 62t-149 90.5t-106 125t-40.5 165.5t40.5 168.5t108.5 126.5t158 80t188 28q105 0 196.5 -32.5t160 -91t108.5 -140t41 -180.5h-240q-5 55 -23.5 100.5t-52 78.5t-81.5 51t-111 18q-54 0 -100 -14 t-79.5 -41t-52.5 -65t-19 -86q0 -51 26 -88.5t68 -65.5t96.5 -48.5t113.5 -37.5q91 -27 174 -66.5t146 -95t100 -128.5t37 -167q0 -97 -41 -171t-110 -124t-160 -75.5t-190 -25.5q-67 0 -133 13t-126.5 39t-112.5 64.5t-90.5 89t-60.5 113t-23 137.5h241q5 -66 29 -115 t64 -81.5t93.5 -49t118.5 -16.5q54 0 101 13t82 38.5t55 63t20 85.5z" />
<glyph unicode="&#x406;" d="M181 1456h866v-199h-315v-1059h315v-198h-866v198h308v1059h-308v199z" />
<glyph unicode="&#x407;" d="M181 1456h866v-199h-315v-1059h315v-198h-866v198h308v1059h-308v199zM224 1715q0 50 33.5 84t92.5 34t92.5 -34t33.5 -84t-33.5 -83.5t-92.5 -33.5t-92.5 33.5t-33.5 83.5zM679 1714q0 50 33 83.5t92 33.5t92.5 -33.5t33.5 -83.5t-33.5 -84t-92.5 -34t-92 34t-33 84z " />
<glyph unicode="&#x408;" d="M832 1456h243l1 -1011q-2 -102 -39.5 -187.5t-103 -147t-153.5 -96t-191 -34.5q-107 0 -194 29.5t-150 86t-100 139.5t-42 190h242q5 -118 66.5 -183.5t177.5 -65.5q55 0 100 21t76.5 58t48.5 85.5t18 104.5v1011z" />
<glyph unicode="&#x409;" d="M765 1456v-535h47q87 0 155 -34.5t115.5 -96t72 -146t24.5 -183.5q0 -100 -24.5 -184.5t-72 -146t-115.5 -96t-155 -34.5h-260v1262h-159v-589q0 -172 -19 -298.5t-59 -210t-102.5 -124t-149.5 -40.5h-29v193h20q32 0 54.5 28t37 87t21 149.5t6.5 215.5v783h592zM765 728 v-535h51q40 0 68 22.5t46 60t26 86.5t8 101q0 50 -9 98t-27.5 85t-47.5 59.5t-68 22.5h-47z" />
<glyph unicode="&#x40a;" d="M339 836h198v620h221v-566h23q90 0 160 -33t119 -91.5t74.5 -139.5t25.5 -178t-25.5 -179t-74.5 -142t-119 -93.5t-160 -33.5h-244v643h-198v-643h-229v1456h229v-620zM758 697v-498h27q42 0 72.5 20.5t49.5 55.5t28 80t9 95q0 48 -9.5 93t-29.5 79t-51 54.5t-73 20.5 h-23z" />
<glyph unicode="&#x40b;" d="M1087 1262h-472v-393q14 1 24.5 1h13.5q105 0 190 -23.5t145 -74t93 -128.5t33 -186v-458h-240v458q0 62 -13.5 104t-41 67.5t-69 36.5t-97.5 11h-38v-677h-241v1262h-321v194h1034v-194z" />
<glyph unicode="&#x40c;" d="M546 633l-156 -175v-458h-243v1456h243v-682l133 173l383 509h293l-495 -639l520 -817h-288zM692 1811h274l-277 -273h-182z" />
<glyph unicode="&#x40d;" d="M837 1456h241v-1456h-241v988l-461 -988h-241v1456h241v-988zM697 1535h-190l-259 273h273z" />
<glyph unicode="&#x40e;" d="M540 871l86 -237l325 822h269l-522 -1199q-24 -56 -56 -106t-77.5 -88.5t-108 -61t-148.5 -22.5q-72 0 -127 12t-86 22l22 185q13 -4 32 -8.5t40.5 -8.5t43.5 -6.5t41 -2.5q47 0 82 11.5t60.5 31t42.5 45.5t28 55l34 72l-497 1069h264zM977 1859q0 -62 -22.5 -114 t-64 -89t-101 -57.5t-133.5 -20.5t-133.5 20.5t-101 57.5t-64 89t-22.5 114h180q0 -28 7.5 -53t24.5 -44.5t43.5 -31t65.5 -11.5q38 0 65 11.5t43.5 31t24 44.5t7.5 53h181z" />
<glyph unicode="&#x40f;" d="M134 1456h240v-1263h461v1263h241v-1456h-343v-360h-242v360h-357v1456z" />
<glyph unicode="&#x410;" d="M855 338h-455l-100 -338h-248l473 1456h211l464 -1456h-247zM461 543h334l-165 571z" />
<glyph unicode="&#x411;" d="M1064 1262h-677v-371h211q123 0 219 -31.5t162 -89t100.5 -139t34.5 -180.5q0 -100 -34.5 -183t-100.5 -142.5t-162 -92.5t-219 -33h-453v1456h919v-194zM387 698v-505h211q72 0 124 21t85.5 57t49.5 83t16 99q0 50 -16 94.5t-49.5 78t-85.5 53t-124 19.5h-211z" />
<glyph unicode="&#x412;" d="M148 0v1456h465q105 -1 196.5 -24t160 -71t107.5 -122.5t38 -176.5q-1 -108 -60 -184.5t-159 -118.5q61 -17 108.5 -48.5t79.5 -75.5t49 -97.5t17 -113.5q0 -104 -38 -183t-105.5 -132t-160 -80.5t-199.5 -28.5h-499zM389 660v-464h262q57 1 104 17.5t81 45.5t53.5 71 t19.5 94q0 55 -17 98.5t-49 73.5t-78 46.5t-103 17.5h-273zM389 843h230q54 1 100.5 14.5t80.5 40t54 65t20 88.5q0 55 -19 94t-53.5 64t-81.5 36.5t-103 12.5h-228v-415z" />
<glyph unicode="&#x413;" d="M1078 1262h-677v-1262h-241v1456h918v-194z" />
<glyph unicode="&#x414;" d="M1125 -358h-211v358h-619v-359h-204l-37 552h60q45 27 79.5 74.5t58.5 126t38.5 193t20.5 273.5l36 596h689v-1263h119zM553 860q-9 -239 -41 -401.5t-85 -265.5h369v1069h-220z" />
<glyph unicode="&#x415;" d="M1002 653h-599v-457h701v-196h-942v1456h935v-198h-694v-411h599v-194z" />
<glyph unicode="&#x416;" d="M776 616h-51v-616h-222v616h-57l-165 -616h-273l254 750l-222 706h264l144 -633h55v633h222v-633h49l141 633h264l-219 -706l250 -750h-273z" />
<glyph unicode="&#x417;" d="M624 837q72 0 122.5 16.5t83 45.5t47.5 70t15 91q0 45 -16.5 85.5t-51.5 71t-88.5 48.5t-127.5 18q-56 0 -104 -16t-83.5 -44t-56 -67.5t-20.5 -85.5h-240q0 94 40.5 169.5t109.5 128t160.5 80.5t193.5 28q120 0 217 -26.5t165.5 -79t105.5 -130t37 -179.5 q0 -50 -15.5 -96t-45 -86.5t-72 -73.5t-96.5 -57q121 -42 186 -127.5t65 -212.5q0 -102 -40.5 -182t-113.5 -134.5t-173 -83t-220 -28.5q-96 0 -190 24.5t-168.5 76t-120.5 131.5t-46 192h241q0 -48 20.5 -90.5t58 -74t89.5 -49.5t116 -18q73 0 130 18t96 49.5t59.5 74.5 t20.5 93q0 125 -73.5 182.5t-216.5 57.5h-189v190h189z" />
<glyph unicode="&#x418;" d="M837 1456h241v-1456h-241v988l-461 -988h-241v1456h241v-988z" />
<glyph unicode="&#x419;" d="M837 1456h241v-1456h-241v988l-461 -988h-241v1456h241v-988zM921 1846q0 -62 -22.5 -114t-64 -89t-101 -57.5t-133.5 -20.5t-133.5 20.5t-101 57.5t-64 89t-22.5 114h180q0 -28 7.5 -53t24.5 -44.5t43.5 -31t65.5 -11.5q38 0 65 11.5t43.5 31t24 44.5t7.5 53h181z" />
<glyph unicode="&#x41a;" d="M538 626h-142v-626h-241v1456h241v-641h109l405 641h277l-460 -703l489 -753h-286z" />
<glyph unicode="&#x41b;" d="M1086 1456v-1456h-241v1262h-352l-2 -581q-2 -180 -25 -309t-70 -211.5t-119.5 -121.5t-172.5 -39h-61v193h40q48 3 80 29.5t51.5 84t27.5 149t9 225.5l3 775h832z" />
<glyph unicode="&#x41c;" d="M433 1456l181 -629l200 629h298v-1456h-226v500l14 638l-224 -698h-126l-203 674l14 -614v-500h-226v1456h298z" />
<glyph unicode="&#x41d;" d="M1092 0h-234v650h-495v-650h-233v1456h233v-609h495v609h234v-1456z" />
<glyph unicode="&#x41e;" d="M1136 634q0 -129 -33 -247.5t-98.5 -209t-164 -144t-230.5 -53.5q-131 0 -228 54t-161.5 144.5t-97 208.5t-32.5 247v186q0 86 14.5 168t43 154.5t71 134t100 105.5t130 69t159.5 25q132 0 230.5 -54t164.5 -144.5t99 -209.5t33 -248v-186zM895 822q-1 82 -15 163 t-47 144.5t-87.5 103t-136.5 39.5q-81 0 -134.5 -39.5t-85 -103.5t-44 -144.5t-13.5 -162.5v-188q1 -82 14 -162.5t44.5 -145t85 -104.5t134.5 -40q82 0 136.5 40t87.5 104t46.5 145t14.5 163v188z" />
<glyph unicode="&#x41f;" d="M1082 0h-241v1262h-460v-1262h-241v1456h942v-1456z" />
<glyph unicode="&#x420;" d="M407 558v-558h-240v1456h487q109 -1 201.5 -32.5t159.5 -90t104.5 -142t37.5 -188.5q0 -102 -37.5 -184t-104.5 -140t-159.5 -89t-201.5 -32h-247zM407 752h247q61 0 109 18.5t82 51.5t52 79t18 100q0 57 -18 105t-52 82.5t-82 53.5t-109 20h-247v-510z" />
<glyph unicode="&#x421;" d="M1132 447q-10 -105 -50 -191.5t-106 -148t-155.5 -95t-199.5 -33.5q-133 0 -232 51.5t-165 139.5t-99 206t-34 252v199q1 133 35 251.5t100.5 207t165.5 140t230 51.5q115 0 205 -34t154 -96t102 -151t49 -198h-240q-6 64 -24.5 116.5t-50.5 90t-80.5 57.5t-114.5 20 q-81 0 -136 -37t-89 -99.5t-48.5 -144.5t-14.5 -172v-201q0 -94 14.5 -176.5t47.5 -144.5t88 -98t137 -36q126 0 192 71.5t78 202.5h241z" />
<glyph unicode="&#x422;" d="M1180 1258h-447v-1258h-239v1258h-444v198h1130v-198z" />
<glyph unicode="&#x423;" d="M540 871l86 -237l325 822h269l-522 -1199q-24 -56 -56 -106t-77.5 -88.5t-108 -61t-148.5 -22.5q-72 0 -127 12t-86 22l22 185q13 -4 32 -8.5t40.5 -8.5t43.5 -6.5t41 -2.5q47 0 82 11.5t60.5 31t42.5 45.5t28 55l34 72l-497 1069h264z" />
<glyph unicode="&#x424;" d="M759 1254q99 -10 182 -52t143 -111t94 -163t34 -206t-34 -205t-94 -161.5t-143 -110.5t-182 -52v-193h-240v192q-99 9 -182.5 51t-143.5 110.5t-93.5 161.5t-33.5 205t33.5 206t93.5 164t143.5 112.5t182.5 51.5v202h240v-202zM303 720q0 -140 56.5 -224t159.5 -102v658 q-103 -19 -159.5 -105t-56.5 -227zM973 722q0 140 -56 225.5t-158 104.5v-658q102 19 158 103.5t56 224.5z" />
<glyph unicode="&#x425;" d="M624 914l280 542h283l-415 -722l425 -734h-281l-288 551l-288 -551h-284l425 734l-414 722h281z" />
<glyph unicode="&#x426;" d="M134 1456h240v-1263h446v1263h241v-1261h170l-20 -546h-219v351h-858v1456z" />
<glyph unicode="&#x427;" d="M1094 1456v-1456h-241v574q-57 -18 -120 -29t-131 -11q-102 0 -184 26t-139 81.5t-87.5 143.5t-30.5 212v459h240v-459q0 -79 12.5 -130.5t37 -82t62.5 -43t89 -12.5q60 0 125.5 10t125.5 29v688h241z" />
<glyph unicode="&#x428;" d="M339 1456v-1263h166v1263h232v-1263h165v1263h237v-1456h-1037v1456h237z" />
<glyph unicode="&#x429;" d="M339 1456v-1263h166v1263h232v-1263h165v1263h237v-1264h110l-20 -543h-218v351h-909v1456h237z" />
<glyph unicode="&#x42a;" d="M51 1456h512v-588h109q116 0 205.5 -31t150.5 -87.5t92.5 -136t31.5 -176.5q0 -96 -31.5 -176.5t-92.5 -138.5t-150.5 -90t-205.5 -32h-350v1267h-271v189zM563 675v-483h109q64 0 109.5 19.5t74 53.5t42 79t13.5 95q0 49 -13.5 92t-42 75t-74 50.5t-109.5 18.5h-109z " />
<glyph unicode="&#x42b;" d="M347 864h71q93 0 164 -30.5t120 -86.5t74 -134.5t25 -175.5q0 -96 -26 -176.5t-77 -138.5t-125.5 -90t-171.5 -32h-295v1456h241v-592zM1128 0h-241v1456h241v-1456zM347 675v-487h62q41 0 70 20.5t47 55t26.5 80t8.5 95.5q0 49 -8.5 92t-26.5 75t-47 50.5t-70 18.5h-62z " />
<glyph unicode="&#x42c;" d="M386 891h212q123 0 219 -31.5t162 -89t100.5 -139t34.5 -180.5q0 -100 -34.5 -183t-100.5 -142.5t-162 -92.5t-219 -33h-453v1456h241v-565zM386 698v-505h212q72 0 124 21t85.5 57t49.5 83t16 99q0 50 -16 94.5t-49.5 78t-85.5 53t-124 19.5h-212z" />
<glyph unicode="&#x42d;" d="M313 475q-3 -70 14.5 -126t51 -95.5t81.5 -60.5t107 -21q135 0 213 99.5t78 293.5v64h-428v194h428v66q0 95 -19.5 168.5t-56.5 124t-89.5 76.5t-118.5 26q-65 0 -115 -21.5t-83 -61t-49.5 -96.5t-13.5 -128h-241q0 103 35.5 194t100.5 159.5t158 108t208 39.5 q116 0 212.5 -41t165.5 -117.5t107.5 -185.5t38.5 -245v-322q0 -136 -38 -245t-107.5 -185t-167.5 -116.5t-218 -40.5q-111 0 -202.5 34.5t-157 98.5t-101 155.5t-33.5 206.5h240z" />
<glyph unicode="&#x42e;" d="M1133 507q0 -263 -94.5 -395.5t-271.5 -132.5q-168 0 -256.5 132.5t-88.5 395.5v109h-97v-616h-225v1456h225v-651h97v144q0 263 88.5 395.5t256.5 132.5q177 0 271.5 -132.5t94.5 -395.5v-442zM904 967q0 85 -7 145t-23 97.5t-42.5 54.5t-64.5 17q-33 0 -56 -17 t-37.5 -54.5t-21 -97.5t-6.5 -145v-477q0 -86 6.5 -146.5t21 -98t37.5 -54.5t56 -17q38 0 64.5 17t42.5 54.5t23 98t7 146.5v477z" />
<glyph unicode="&#x42f;" d="M815 0v590h-258l-289 -590h-257l329 658q-128 55 -195.5 148t-67.5 227q0 102 36.5 181t105 133t165.5 81.5t218 27.5h454v-1456h-241zM318 1025q0 -114 71 -180.5t213 -66.5h213v484h-213q-143 0 -213.5 -63.5t-70.5 -173.5z" />
<glyph unicode="&#x430;" d="M845 0q-10 20 -16.5 47t-11.5 58q-25 -26 -56.5 -48.5t-70 -39.5t-83 -27t-95.5 -10q-86 0 -155.5 24.5t-119 68t-76.5 102.5t-27 128q0 174 129.5 266t371.5 92h175v71q0 86 -58 136.5t-164 50.5q-48 0 -84 -11.5t-60 -31.5t-36 -47t-12 -58h-239q0 63 29.5 122.5 t86.5 106t139.5 74.5t188.5 28q96 0 178 -23.5t142 -70t94 -116t34 -162.5v-482q0 -71 10.5 -129.5t30.5 -101.5v-17h-245zM557 173q46 0 86.5 11.5t73 30t56 42.5t37.5 49v203h-152q-146 0 -215.5 -47t-69.5 -134q0 -33 11 -61.5t33.5 -49t57 -32.5t82.5 -12z" />
<glyph unicode="&#x431;" d="M663 1022q107 0 191 -38t141.5 -104.5t87.5 -158t30 -197.5v-21q0 -113 -33 -208.5t-96.5 -166t-155.5 -110t-210 -39.5q-119 0 -211 41t-156 114t-97 172t-33 216v21v3v55q0 191 35.5 332.5t100 239t154 155t199.5 80.5q54 11 96 22t70.5 27.5t43.5 39.5t15 58h194 q0 -92 -26.5 -150.5t-75 -95t-117.5 -57t-153 -38.5q-64 -14 -118.5 -38.5t-98 -64.5t-73.5 -99t-45 -141q66 70 150.5 110.5t190.5 40.5zM616 829q-68 0 -116.5 -24.5t-79.5 -66.5t-45 -97.5t-14 -116.5v-21q0 -68 14.5 -128.5t45 -106t79.5 -72t118 -26.5q68 0 116.5 26.5 t79.5 72t45.5 106t14.5 128.5v21q0 61 -14.5 116.5t-46 97.5t-80 66.5t-117.5 24.5z" />
<glyph unicode="&#x432;" d="M149 0v1082h438q105 0 189 -18t143 -55.5t90.5 -94t31.5 -132.5q0 -75 -46.5 -134.5t-136.5 -91.5q114 -26 171 -93.5t57 -153.5q0 -77 -29 -135t-84 -96.5t-135 -58t-181 -19.5h-508zM388 461v-272h269q97 0 143.5 35t46.5 101q0 63 -45 99.5t-145 36.5h-269zM388 634 h202q212 0 212 124q0 69 -54 101t-161 32h-199v-257z" />
<glyph unicode="&#x433;" d="M1071 888h-671v-888h-239v1082h910v-194z" />
<glyph unicode="&#x434;" d="M148 192q49 7 78.5 47t46 106.5t24 155.5t12.5 194l11 387h748v-891h149l-20 -512h-219v321h-697v-321h-222l-20 513h109zM548 695q-9 -159 -27.5 -286t-58.5 -218h367v684h-276z" />
<glyph unicode="&#x435;" d="M659 -20q-120 0 -219 40t-169.5 110t-109.5 165.5t-39 206.5v41q0 129 41.5 232t111 176t162 112t194.5 39q118 0 208 -39.5t150.5 -111t91.5 -169.5t31 -215v-101h-750q6 -63 31 -117t65.5 -93.5t95 -62t119.5 -22.5q91 0 167.5 36t124.5 99l130 -122q-26 -39 -67 -75.5 t-96 -65t-123.5 -46t-149.5 -17.5zM630 909q-50 0 -93 -18t-77 -52.5t-57.5 -84t-33.5 -112.5h507v18q-3 48 -18.5 92.5t-45.5 79.5t-75.5 56t-106.5 21z" />
<glyph unicode="&#x436;" d="M771 437h-54v-437h-220v437h-54l-159 -437h-259l257 568l-236 514h256l148 -426h47v426h220v-426h48l149 426h256l-235 -511l257 -571h-261z" />
<glyph unicode="&#x437;" d="M628 640q117 0 169 37t52 98q0 26 -13 51.5t-40.5 45.5t-71 32t-103.5 12q-51 0 -95.5 -10.5t-77.5 -29.5t-52 -44.5t-19 -56.5h-238q0 76 37.5 136.5t102.5 102.5t151.5 64.5t184.5 22.5q107 0 194 -20.5t149 -60t96 -98.5t34 -136q0 -72 -50 -132.5t-141 -96.5 q103 -32 157 -95.5t54 -155.5q0 -77 -37 -137.5t-102.5 -102.5t-156 -64t-197.5 -22q-91 0 -179.5 20t-158 61.5t-112.5 106t-43 153.5h238q0 -31 18.5 -59.5t52.5 -50.5t82.5 -35t108.5 -13t106 12.5t77 33.5t47 48.5t16 57.5q0 80 -61.5 115t-178.5 35h-226v175h226z" />
<glyph unicode="&#x438;" d="M837 1082h239v-1082h-239v736l-458 -736h-239v1082h239v-736z" />
<glyph unicode="&#x439;" d="M837 1082h239v-1082h-239v736l-458 -736h-239v1082h239v-736zM918 1527q0 -62 -22.5 -114t-64 -89t-101 -57.5t-133.5 -20.5t-133.5 20.5t-101 57.5t-64 89t-22.5 114h180q0 -28 7.5 -53t24.5 -44.5t43.5 -31t65.5 -11.5q38 0 65 11.5t43.5 31t24 44.5t7.5 53h181z" />
<glyph unicode="&#x43a;" d="M550 430h-167v-430h-239v1082h239v-434h148l343 434h296l-429 -522l461 -560h-310z" />
<glyph unicode="&#x43b;" d="M1076 1082v-1082h-240v888h-338v-267q0 -154 -20 -270.5t-67 -194.5t-124 -117t-190 -39h-53l1 202h37q54 0 88 23.5t54 74t27 130t7 191.5v461h818z" />
<glyph unicode="&#x43c;" d="M607 295l183 787h299v-1082h-223v617l-178 -617h-163l-178 621v-621h-223v1082h302z" />
<glyph unicode="&#x43d;" d="M1076 0h-240v438h-456v-438h-240v1082h240v-452h456v452h240v-1082z" />
<glyph unicode="&#x43e;" d="M111 551q0 117 34.5 218t99 175t157.5 116t211 42q119 0 212.5 -42t158 -116t98.5 -175t34 -218v-21q0 -118 -34 -219t-98.5 -174.5t-157.5 -115.5t-211 -42q-119 0 -212.5 42t-158 115.5t-99 174.5t-34.5 219v21zM350 530q0 -74 15.5 -139t48 -114.5t82.5 -78t119 -28.5 q67 0 116.5 28.5t82 78t48 114.5t15.5 139v21q0 72 -15.5 137t-48 114t-82 78t-118.5 29q-68 0 -118 -29t-82 -78t-47.5 -114t-15.5 -137v-21z" />
<glyph unicode="&#x43f;" d="M1076 0h-239v888h-457v-888h-240v1082h936v-1082z" />
<glyph unicode="&#x440;" d="M1102 530q0 -118 -28 -219t-82 -174.5t-132.5 -115t-180.5 -41.5q-92 0 -162.5 30t-121.5 86v-512h-239v1498h220l10 -109q52 62 123.5 95.5t166.5 33.5q103 0 182.5 -40t133.5 -112.5t82 -174t28 -224.5v-21zM863 551q0 73 -15 137.5t-46 113t-79 76.5t-114 28 q-80 0 -132 -34t-82 -91v-484q30 -56 81.5 -91t134.5 -35q66 0 114 29t78.5 78t45 114t14.5 138v21z" />
<glyph unicode="&#x441;" d="M628 170q44 0 85.5 14t73.5 39t50.5 59t17.5 74h226q1 -78 -35.5 -146.5t-99 -119.5t-144.5 -81t-172 -30q-125 0 -219 43t-157 117.5t-94.5 173t-31.5 209.5v36q0 111 31.5 210t94.5 173t157 117.5t218 43.5q98 0 181.5 -30t144 -84t94 -129t32.5 -164h-226 q1 44 -15.5 83t-47.5 68t-73 46t-92 17q-75 0 -125 -30.5t-80 -80t-42.5 -112.5t-12.5 -128v-36q0 -66 12.5 -129t42.5 -112.5t80 -80t126 -30.5z" />
<glyph unicode="&#x442;" d="M1175 891h-421v-891h-240v891h-417v191h1078v-191z" />
<glyph unicode="&#x443;" d="M584 433l41 -130l304 779h265l-548 -1246q-18 -41 -47 -88.5t-71.5 -88.5t-101.5 -68.5t-138 -27.5q-33 0 -66.5 5.5t-59.5 12.5l34 186q7 0 19 -0.5t25 -1.5t24.5 -1.5t18.5 -0.5q35 0 62.5 20.5t48.5 47t34.5 52t19.5 34.5l71 134l-460 1031h264z" />
<glyph unicode="&#x444;" d="M87 551q0 102 27.5 191.5t79 160.5t127 119t171.5 68v446h241v-446q97 -19 172.5 -67t128 -119t80 -161t27.5 -192v-21q0 -103 -27.5 -193t-80 -161t-128 -119t-172.5 -67v-406h-241v407q-96 19 -171.5 67.5t-127 119.5t-79 160.5t-27.5 191.5v21zM909 551 q0 55 -10.5 107t-32.5 96t-55 78t-78 54v-693q45 19 78 53t55 78.5t32.5 96.5t10.5 109v21zM320 530q0 -56 10 -108t31 -96t53.5 -77.5t77.5 -53.5v690q-44 -20 -76.5 -54t-53.5 -78t-31.5 -95.5t-10.5 -106.5v-21z" />
<glyph unicode="&#x445;" d="M628 716l258 366h266l-382 -533l394 -549h-265l-268 379l-267 -379h-267l394 549l-382 533h265z" />
<glyph unicode="&#x446;" d="M140 1082h240v-891h427v891h239v-891h146l-20 -512h-218v321h-814v1082z" />
<glyph unicode="&#x447;" d="M1095 0h-240v367q-59 -13 -122.5 -20t-129.5 -7q-108 0 -195.5 25t-149 75.5t-95 128t-33.5 182.5v331h239v-331q0 -59 15 -100.5t44 -67.5t73 -38t102 -12q68 0 130 7t122 20v522h240v-1082z" />
<glyph unicode="&#x448;" d="M340 1082v-891h160v891h231v-891h160v891h235v-1082h-1021v1082h235z" />
<glyph unicode="&#x449;" d="M332 1082v-891h160v891h231v-891h160v891h235v-891h100l-20 -512h-202v321h-899v1082h235z" />
<glyph unicode="&#x44a;" d="M576 681h163q103 0 181.5 -25t132 -69.5t81 -105t27.5 -132.5q0 -73 -27.5 -136.5t-81 -111t-132 -74.5t-181.5 -27h-404v893h-279v189h520v-401zM576 492v-304h163q50 0 84.5 13.5t55.5 35t30.5 49t9.5 55.5q0 26 -9.5 53t-30.5 48.5t-55.5 35.5t-84.5 14h-163z" />
<glyph unicode="&#x44b;" d="M352 685h61q94 0 164 -25.5t117 -70.5t70.5 -106.5t23.5 -133.5q0 -73 -23.5 -136.5t-70.5 -111t-117 -74.5t-164 -27h-294v1082h233v-397zM1120 0h-241v1082h241v-1082zM352 508v-320h61q46 0 75 13.5t45.5 35t22.5 49t6 55.5t-6 58t-22.5 54t-45.5 39.5t-75 15.5h-61z " />
<glyph unicode="&#x44c;" d="M388 695h300q104 0 185 -25.5t136 -71.5t83.5 -109.5t28.5 -139.5q0 -74 -28.5 -138t-83.5 -111t-136 -73.5t-185 -26.5h-539v1082h239v-387zM388 504v-313h300q53 0 89.5 13t59.5 34t33.5 48.5t10.5 57.5t-10.5 58.5t-33.5 51t-59.5 36.5t-89.5 14h-300z" />
<glyph unicode="&#x44d;" d="M579 909q-47 0 -90 -13.5t-75 -38.5t-51 -59t-19 -74h-226q0 78 37.5 147t101 120t147 81t175.5 30q130 0 227.5 -43.5t161.5 -117.5t96 -173t32 -210v-36q0 -111 -32 -209.5t-96 -172.5t-161.5 -117t-227.5 -43q-101 0 -186 30t-146 83.5t-95 128t-34 163.5h226 q0 -44 17.5 -83t48.5 -68t74 -46t95 -17q72 0 122 24.5t82.5 65t48.5 94t21 110.5h-364v167h363q-6 55 -23 105.5t-49 88.5t-81.5 60.5t-119.5 22.5z" />
<glyph unicode="&#x44e;" d="M327 629h100q5 102 30.5 188.5t72 150t113 99t154.5 35.5q94 0 164.5 -40.5t117 -111t69.5 -167t23 -208.5v-70q0 -112 -23 -208.5t-69.5 -167t-116 -110.5t-163.5 -40q-90 0 -158 35.5t-114.5 98.5t-71.5 148.5t-29 186.5h-99v-448h-245v1082h245v-453zM658 505 q0 -68 6.5 -129t22.5 -107.5t43 -74t69 -27.5q41 0 68 27.5t42.5 74t22 107.5t6.5 129v70q0 67 -6.5 128t-22.5 107.5t-43 74.5t-69 28q-41 0 -68 -28t-43 -74.5t-22 -107.5t-6 -128v-70z" />
<glyph unicode="&#x44f;" d="M1087 1082v-1082h-239v399h-289l-234 -399h-250l256 438q-100 42 -153.5 120t-53.5 179q0 74 29.5 137.5t86 109.5t137.5 72t184 26h526zM364 732q0 -29 10.5 -56.5t33 -49.5t57 -35.5t82.5 -13.5h301v314h-287q-51 0 -88.5 -14t-61.5 -36.5t-35.5 -51t-11.5 -57.5z" />
<glyph unicode="&#x450;" d="M659 -20q-120 0 -219 40t-169.5 110t-109.5 165.5t-39 206.5v41q0 129 41.5 232t111 176t162 112t194.5 39q118 0 208 -39.5t150.5 -111t91.5 -169.5t31 -215v-101h-750q6 -63 31 -117t65.5 -93.5t95 -62t119.5 -22.5q91 0 167.5 36t124.5 99l130 -122q-26 -39 -67 -75.5 t-96 -65t-123.5 -46t-149.5 -17.5zM630 909q-50 0 -93 -18t-77 -52.5t-57.5 -84t-33.5 -112.5h507v18q-3 48 -18.5 92.5t-45.5 79.5t-75.5 56t-106.5 21zM709 1232h-190l-259 273h273z" />
<glyph unicode="&#x451;" d="M659 -20q-120 0 -219 40t-169.5 110t-109.5 165.5t-39 206.5v41q0 129 41.5 232t111 176t162 112t194.5 39q118 0 208 -39.5t150.5 -111t91.5 -169.5t31 -215v-101h-750q6 -63 31 -117t65.5 -93.5t95 -62t119.5 -22.5q91 0 167.5 36t124.5 99l130 -122q-26 -39 -67 -75.5 t-96 -65t-123.5 -46t-149.5 -17.5zM630 909q-50 0 -93 -18t-77 -52.5t-57.5 -84t-33.5 -112.5h507v18q-3 48 -18.5 92.5t-45.5 79.5t-75.5 56t-106.5 21zM254 1394q0 50 33.5 84t92.5 34t92.5 -34t33.5 -84t-33.5 -83.5t-92.5 -33.5t-92.5 33.5t-33.5 83.5zM709 1393 q0 50 33 83.5t92 33.5t92.5 -33.5t33.5 -83.5t-33.5 -84t-92.5 -34t-92 34t-33 84z" />
<glyph unicode="&#x452;" d="M630 1197h-246v-265q56 80 136.5 125t179.5 45q84 0 154.5 -25t120.5 -77.5t78 -135t28 -197.5v-203h1v-529q0 -90 -24 -159.5t-69 -117t-109.5 -71.5t-146.5 -24q-35 0 -64.5 3.5t-62.5 13.5l15 188q9 -3 22 -5.5t26.5 -4t27 -2.5t22.5 -1q60 0 92 47t32 133v65h-1v669 q0 62 -15.5 106.5t-44 73.5t-69.5 43t-93 14q-78 0 -138 -32.5t-98 -87.5v-786h-239v1197h-182v170h182v169h239v-169h246v-170z" />
<glyph unicode="&#x453;" d="M1071 888h-671v-888h-239v1082h910v-194zM700 1486h274l-277 -273h-182z" />
<glyph unicode="&#x454;" d="M623 170q44 0 85.5 14t73.5 39t50.5 59t17.5 74h226q1 -78 -35.5 -146.5t-99 -119.5t-144.5 -81t-172 -30q-125 0 -219 43t-157 117.5t-94.5 173t-31.5 209.5v36q0 111 31.5 210t94.5 173t157 117.5t218 43.5q98 0 181.5 -30t144 -84t94 -129t32.5 -164h-226 q1 44 -15.5 83t-47.5 68t-73 46t-92 17q-66 0 -112.5 -24t-77 -64.5t-47 -92.5t-21.5 -109h355v-168h-354q6 -56 22 -107t47 -89.5t77 -61.5t112 -23z" />
<glyph unicode="&#x455;" d="M860 293q0 27 -11 49.5t-39.5 41t-78 34.5t-126.5 31q-96 20 -173.5 48t-133 67t-85.5 90.5t-30 119.5q0 66 31 125.5t88.5 104.5t140 71.5t184.5 26.5q108 0 193.5 -27t144.5 -73.5t90.5 -109.5t31.5 -135h-239q0 32 -14 61.5t-42 52.5t-69.5 36.5t-95.5 13.5 t-93.5 -11.5t-65.5 -30t-38.5 -43.5t-12.5 -52t9.5 -49t35.5 -40t72 -32.5t119 -27.5q102 -18 183.5 -45t139 -66t88.5 -92.5t31 -125.5t-33 -132t-94 -103.5t-146.5 -67.5t-191.5 -24q-118 0 -208 31.5t-151 82.5t-92.5 116t-31.5 132h232q3 -50 26 -85t59 -56.5t80 -31 t89 -9.5q111 0 169 37.5t58 96.5z" />
<glyph unicode="&#x456;" d="M207 1082h577v-884h321v-198h-898v198h336v685h-336v199zM523 1362q0 56 36 92.5t101 36.5q66 0 102.5 -36.5t36.5 -92.5t-36.5 -92.5t-102.5 -36.5q-65 0 -101 36.5t-36 92.5z" />
<glyph unicode="&#x457;" d="M199 1082h585v-884h330v-198h-915v198h344v685h-344v199zM310 1367q0 50 33.5 84t92.5 34t92.5 -34t33.5 -84t-33.5 -83.5t-92.5 -33.5t-92.5 33.5t-33.5 83.5zM765 1366q0 50 33 83.5t92 33.5t92.5 -33.5t33.5 -83.5t-33.5 -84t-92.5 -34t-92 34t-33 84z" />
<glyph unicode="&#x458;" d="M303 1082h554v-1099q0 -106 -30 -184.5t-86.5 -131t-139 -78.5t-187.5 -26q-51 0 -99 3.5t-96 13.5l14 194q14 -3 37.5 -5.5t48 -4t47 -2t34.5 -0.5q45 0 84.5 11t69 36.5t46 68t16.5 105.5v900h-313v199zM595 1362q0 56 36 92.5t101 36.5q66 0 102.5 -36.5t36.5 -92.5 t-36.5 -92.5t-102.5 -36.5q-65 0 -101 36.5t-36 92.5z" />
<glyph unicode="&#x459;" d="M806 1082v-380h20q94 0 167 -26t123 -72t76 -110t26 -140t-26 -140.5t-76 -112t-123 -74.5t-167 -27h-256v888h-142v-267q0 -154 -19 -270.5t-61.5 -194.5t-110 -117t-163.5 -39h-43l1 202l27 1q71 0 104 101.5t33 316.5v461h610zM806 511v-322h20q42 0 71 14.5t47 38 t26.5 53.5t8.5 61q0 30 -8.5 57.5t-26.5 49.5t-47 35t-71 13h-20z" />
<glyph unicode="&#x45a;" d="M350 671h175v411h240v-380h39q90 0 159.5 -26t117 -72.5t72 -110t24.5 -139.5t-24.5 -140.5t-72 -112t-117 -74.5t-159.5 -27h-279v480h-175v-480h-240v1082h240v-411zM765 511v-322h39q36 0 61.5 14.5t41.5 38t23 53.5t7 61q0 30 -7 57.5t-23 49.5t-41.5 35t-61.5 13 h-39z" />
<glyph unicode="&#x45b;" d="M677 1204h-283v-272q56 80 136.5 125t179.5 45q84 0 154.5 -25t120.5 -77.5t78 -135t28 -197.5v-667h-239v669q0 62 -15.5 106.5t-44 73.5t-69.5 43t-93 14q-78 0 -138 -32.5t-98 -87.5v-786h-239v1204h-145v170h145v162h239v-162h283v-170z" />
<glyph unicode="&#x45c;" d="M550 430h-167v-430h-239v1082h239v-434h148l343 434h296l-429 -522l461 -560h-310zM638 1485h274l-277 -273h-182z" />
<glyph unicode="&#x45d;" d="M837 1082h239v-1082h-239v736l-458 -736h-239v1082h239v-736zM694 1216h-190l-259 273h273z" />
<glyph unicode="&#x45e;" d="M584 433l41 -130l304 779h265l-548 -1246q-18 -41 -47 -88.5t-71.5 -88.5t-101.5 -68.5t-138 -27.5q-33 0 -66.5 5.5t-59.5 12.5l34 186q7 0 19 -0.5t25 -1.5t24.5 -1.5t18.5 -0.5q35 0 62.5 20.5t48.5 47t34.5 52t19.5 34.5l71 134l-460 1031h264zM962 1521 q0 -62 -22.5 -114t-64 -89t-101 -57.5t-133.5 -20.5t-133.5 20.5t-101 57.5t-64 89t-22.5 114h180q0 -28 7.5 -53t24.5 -44.5t43.5 -31t65.5 -11.5q38 0 65 11.5t43.5 31t24 44.5t7.5 53h181z" />
<glyph unicode="&#x45f;" d="M380 1082v-891h457v891h239v-1082h-347v-357h-239v357h-350v1082h240z" />
<glyph unicode="&#x460;" d="M1171 1456v-1117q0 -90 -24 -157.5t-66 -112.5t-100 -67.5t-126 -22.5q-73 0 -131 33t-94 99q-35 -66 -91.5 -99t-125.5 -33q-70 0 -129.5 22.5t-102.5 67.5t-67.5 112.5t-24.5 157.5v1117h229v-1117q0 -87 26.5 -127t68.5 -40q45 0 72.5 40t27.5 127v1117h234v-1117 q0 -87 30 -127t78 -40q38 0 62 40t24 127v1117h230z" />
<glyph unicode="&#x461;" d="M1154 1083v-732q0 -93 -23 -163t-64.5 -116.5t-98.5 -69.5t-124 -23q-74 0 -131.5 34.5t-92.5 103.5q-35 -69 -91.5 -103.5t-127.5 -34.5q-69 0 -127 23t-100.5 69.5t-66 116.5t-23.5 163v732h226v-732q0 -94 24.5 -137.5t66.5 -43.5q48 0 75.5 43.5t27.5 137.5v732h233 v-732q0 -94 28.5 -137.5t78.5 -43.5q38 0 61 43.5t23 137.5v732h226z" />
<glyph unicode="&#x462;" d="M618 1094h-232v-203h212q123 0 219 -31.5t162 -89t100.5 -139t34.5 -180.5q0 -100 -34.5 -183t-100.5 -142.5t-162 -92.5t-219 -33h-453v1094h-194v170h194v192h241v-192h232v-170zM386 698v-505h212q72 0 124 21t85.5 57t49.5 83t16 99q0 50 -16 94.5t-49.5 78t-85.5 53 t-124 19.5h-212z" />
<glyph unicode="&#x463;" d="M740 1076h-293v-387h240q104 0 184.5 -25.5t135.5 -71t83.5 -108t28.5 -137.5t-28.5 -138.5t-83.5 -110t-135.5 -72.5t-184.5 -26h-480v1076h-176v170h176v316h240v-316h293v-170zM447 497v-306h240q53 0 89.5 12.5t59.5 33.5t33.5 48.5t10.5 57.5q0 28 -10.5 56 t-33.5 49.5t-59.5 35t-89.5 13.5h-240z" />
<glyph unicode="&#x464;" d="M319 848h122v46q0 123 22.5 229.5t69 185t118.5 123.5t172 45q77 0 143 -27t114 -83.5t74.5 -143.5t26.5 -206h-214q-2 57 -10 104t-24.5 80t-43 51.5t-66.5 18.5q-45 0 -74 -32.5t-45.5 -85t-22.5 -120t-6 -137.5v-48h243v-200h-243v-86q0 -72 6 -139.5t22 -120 t45 -84.5t76 -32q39 0 64.5 18t41 50.5t23.5 77.5t13 98h215q-3 -112 -30.5 -196t-75 -140.5t-111.5 -84.5t-140 -28q-101 0 -173 44t-118.5 122t-69 184.5t-22.5 230.5v86h-122v-648h-231v1456h231v-608z" />
<glyph unicode="&#x465;" d="M935 455h-235q1 -49 8 -98.5t23 -89t42 -64t66 -24.5q50 0 81 40t33 106h221q-2 -78 -29.5 -142t-73 -109t-105 -69.5t-125.5 -24.5q-93 0 -163 37t-117 101.5t-72 151t-29 185.5h-113v-455h-233v1082h233v-454h113q4 98 29 184.5t72 151t117 102t163 37.5q72 0 133 -24 t105 -71.5t69 -117.5t26 -161h-221q-2 77 -29.5 125t-84.5 49q-39 0 -65 -25t-42 -64.5t-23 -88.5t-9 -97h235v-173z" />
<glyph unicode="&#x466;" d="M859 428h-120v-428h-220v428h-108l-138 -428h-249l499 1456h228l493 -1456h-248zM471 614h328l-163 509z" />
<glyph unicode="&#x467;" d="M830 280h-103v-280h-196v280h-103l-104 -280h-244l436 1082h226l439 -1082h-244zM493 452h271l-112 295l-24 90l-25 -90z" />
<glyph unicode="&#x468;" d="M913 452h-49v-452h-159v452h-50l-94 -452h-216l109 452h-147v-452h-213v1456h213v-821h191l198 821h196l322 -1456h-217zM693 635h186l-88 469z" />
<glyph unicode="&#x469;" d="M924 272h-52v-272h-169v272h-61l-81 -272h-216l88 272h-126v-272h-213v1082h213v-627h185l204 627h196l322 -1082h-217zM697 455h178l-84 314z" />
<glyph unicode="&#x46a;" d="M837 790q83 -4 148 -26.5t110 -67.5t69 -114t24 -166v-416h-240v416q0 52 -9 87t-28 55.5t-47 29t-66 8.5h-46v-596h-240v596h-61q-38 0 -66 -8.5t-46.5 -29t-27.5 -55.5t-9 -87v-416h-240v416q0 99 24.5 168.5t71.5 114.5t114.5 66.5t153.5 24.5l-331 666h1043zM632 862 l159 399h-339z" />
<glyph unicode="&#x46b;" d="M838 605q69 -8 123 -33t91.5 -71t57 -113.5t19.5 -159.5v-228h-240v228q0 57 -7.5 94t-22.5 59.5t-38 31.5t-54 9h-36l-2 -4v-418h-239v422h-47q-31 0 -54 -9t-38 -31.5t-22.5 -59.5t-7.5 -94v-228h-239v228q0 94 20.5 162.5t59.5 114.5t95 70.5t128 30.5l-277 476h1008z M612 615l151 293h-302z" />
<glyph unicode="&#x46c;" d="M375 0l-4 472q0 83 19 143h-123v-615h-204v1456h204v-660h362l-229 660h775l-230 -663q250 -23 252 -321l-2 -472h-190l-4 472q0 67 -20 103.5t-75 36.5h-24v-2v-610h-188v610l-1 2h-32q-54 0 -75.5 -36.5t-21.5 -103.5l-1 -472h-188zM788 942l102 330h-205z" />
<glyph unicode="&#x46d;" d="M386 0l-3 285q0 82 19 140h-131v-425h-205v1082h205v-482h347l-203 482h759l-205 -487q110 -17 167.5 -92.5t57.5 -217.5l-3 -285h-189l-3 285q0 66 -20 101.5t-74 36.5h-9l-10 -25h-1v-398h-188v414l-4 9h-22q-52 -1 -72.5 -36.5t-20.5 -101.5l-3 -285h-189zM795 656 l99 265h-198z" />
<glyph unicode="&#x46e;" d="M531 845q71 0 121 15.5t82 44t47 67.5t15 86q0 43 -15.5 80t-47 64.5t-80 43t-114.5 15.5h-284v195h284q109 0 200.5 -25t157.5 -74t102.5 -121.5t36.5 -167.5q0 -112 -62.5 -193t-174.5 -126q131 -42 199.5 -127.5t68.5 -213.5q0 -102 -36 -182t-100.5 -135t-154 -83.5 t-197.5 -28.5h-52q-71 0 -101 -29t-30 -74q0 -38 16 -66t39.5 -48.5t50 -35t47.5 -23.5l-82 -151q-61 19 -114 51t-92.5 76t-62.5 99t-24 121q0 71 24.5 123t70 86t109.5 50.5t144 16.5h51q60 0 107.5 17t80.5 48t50 72.5t17 91.5q0 122 -76.5 183.5t-223.5 61.5h-143v196 h146zM553 1772l146 136h205v-18l-277 -251h-148l-275 249v20h203z" />
<glyph unicode="&#x46f;" d="M555 623q60 0 102.5 10.5t69.5 29.5t39.5 45.5t12.5 58.5q0 28 -13.5 52t-41 42t-69.5 28t-99 10h-284v183h284q102 0 186.5 -20t146 -58.5t95.5 -95.5t34 -132q0 -79 -48.5 -138.5t-136.5 -95.5q106 -32 161.5 -92.5t55.5 -145.5q0 -77 -33 -137.5t-92.5 -102 t-141.5 -63.5t-180 -22h-49q-74 0 -106 -29t-32 -74q0 -38 15.5 -66t38 -48.5t47.5 -35t45 -23.5l-81 -144q-54 20 -104 52t-89 75t-63 96.5t-25 116.5q0 68 23.5 117.5t67.5 81.5t106 47.5t139 15.5h47q108 0 168 41t60 104q0 75 -66 111.5t-194 36.5h-149v169h153z M582 1409l146 136h205v-18l-277 -251h-148l-275 249v20h203z" />
<glyph unicode="&#x470;" d="M763 528q88 23 138.5 103.5t50.5 230.5v594h241v-594q0 -122 -31.5 -215.5t-88 -159.5t-135.5 -105t-175 -51v-331h-240v330q-99 11 -180 49t-138.5 104t-89.5 160.5t-32 218.5v594h240v-594q0 -150 54 -230.5t146 -103.5v928h240v-928z" />
<glyph unicode="&#x471;" d="M745 1082v-894q60 20 101 59.5t67 91.5t37.5 113t11.5 126q-1 131 -23 257t-54 247h235q32 -91 56.5 -216.5t24.5 -287.5q0 -107 -24 -206t-78 -179t-141 -134.5t-213 -71.5v-465h-239v467q-99 16 -178 60t-134.5 118t-85 180t-29.5 246v489h240v-491q0 -89 13.5 -156.5 t38.5 -116t59 -80t76 -47.5v891h239z" />
<glyph unicode="&#x472;" d="M1131 634q0 -129 -33 -247.5t-98.5 -209t-164 -144t-230.5 -53.5q-131 0 -228 54t-161.5 144.5t-97 208.5t-32.5 247v186q0 86 14.5 168t43 154.5t71 134t100 105.5t130 69t159.5 25q132 0 230.5 -54t164.5 -144.5t99 -209.5t33 -248v-186zM890 646h-563v-12 q1 -82 14 -162.5t44.5 -145t85 -104.5t134.5 -40q82 0 136.5 40t87.5 104t46.5 145t14.5 163v12zM327 816h563v6q-1 82 -15 163t-47 144.5t-87.5 103t-136.5 39.5q-81 0 -134.5 -39.5t-85 -103.5t-44 -144.5t-13.5 -162.5v-6z" />
<glyph unicode="&#x473;" d="M92 551q0 117 34.5 218t99 175t157.5 116t211 42q119 0 212.5 -42t158 -116t98.5 -175t34 -218v-21q0 -118 -34 -219t-98.5 -174.5t-157.5 -115.5t-211 -42q-119 0 -212.5 42t-158 115.5t-99 174.5t-34.5 219v21zM596 170q58 0 103 22t77 60t51 90.5t26 112.5h-518 q7 -60 26 -112.5t51.5 -90.5t78 -60t105.5 -22zM594 909q-59 0 -104.5 -22t-77.5 -60.5t-51 -90.5t-26 -111h518q-7 59 -26 111t-51 90.5t-77 60.5t-105 22z" />
<glyph unicode="&#x474;" d="M607 395l28 -116l27 113l229 761q26 81 56.5 141.5t70 100.5t89 59.5t113.5 19.5l45 -1l-1 -212h-20q-47 0 -76.5 -31.5t-51.5 -96.5l-362 -1133h-239l-499 1456h266z" />
<glyph unicode="&#x475;" d="M547 362l20 -96l20 96l144 453q46 147 120 217t174 70q29 0 55 -4t51 -19l-23 -188q-4 2 -17 3.5t-26 1.5q-34 0 -63.5 -26.5t-42.5 -67.5l-289 -802h-206l-397 1082h248z" />
<glyph unicode="&#x476;" d="M607 395l28 -116l27 113l229 761q26 81 56.5 141.5t70 100.5t89 59.5t113.5 19.5l45 -1l-1 -212h-20q-47 0 -76.5 -31.5t-51.5 -96.5l-362 -1133h-239l-499 1456h266zM592 1618h-206l-300 266h261zM889 1618h-191l-245 266h247z" />
<glyph unicode="&#x477;" d="M547 362l20 -96l20 96l144 453q46 147 120 217t174 70q29 0 55 -4t51 -19l-23 -188q-4 2 -17 3.5t-26 1.5q-34 0 -63.5 -26.5t-42.5 -67.5l-289 -802h-206l-397 1082h248zM556 1318h-206l-300 266h261zM853 1318h-191l-245 266h247z" />
<glyph unicode="&#x478;" d="M659 477q0 -113 -20.5 -205t-59.5 -157t-96.5 -100.5t-131.5 -35.5q-69 0 -122 35.5t-88.5 100.5t-53.5 157t-18 205v502q0 113 18 205t54 157t88.5 100.5t121.5 35.5q73 0 130.5 -35.5t97 -100.5t60 -157t20.5 -205v-502zM927 676l17 -174l95 580h176l-234 -1250 q-9 -38 -25 -83.5t-44 -85.5t-69 -67t-99 -27q-10 0 -23.5 1.5t-27 4t-25.5 5.5t-19 5l4 152q6 0 15.5 -1t20 -2t20.5 -1.5t15 -0.5q29 0 48.5 21t32.5 50t20 59.5t12 48.5l21 82l-152 1089h176zM459 1021q0 137 -25 213t-83 76q-29 0 -48.5 -19.5t-31.5 -56.5t-17 -90.5 t-5 -122.5v-584q0 -139 22 -215t80 -76q59 0 83.5 76t24.5 215v584z" />
<glyph unicode="&#x479;" d="M52 551q0 117 18.5 218t58.5 175t101.5 116t148.5 42q88 0 150.5 -42t102.5 -116t58.5 -175t18.5 -218v-21q0 -117 -18.5 -218t-58.5 -175t-102 -116t-149 -42t-149.5 42t-102 116t-58.5 175t-19 218v21zM927 676l16 -183l96 589h176l-234 -1250q-9 -38 -25 -83.5 t-44 -85.5t-69 -67t-99 -27q-10 0 -23.5 1.5t-27 4t-25.5 5.5t-19 5l4 152q6 0 15.5 -1t20 -2t20.5 -1.5t15 -0.5q29 0 48.5 21t32.5 50t20 59.5t12 48.5l21 82l-152 1089h176zM252 530q0 -79 4 -150t17 -124.5t38.5 -85t69.5 -31.5q43 0 68.5 31.5t38.5 85t17 124.5t4 150 v21q0 78 -4 149t-17.5 125t-39.5 85.5t-69 31.5t-68 -31.5t-38 -85.5t-17 -125t-4 -149v-21z" />
<glyph unicode="&#x47a;" d="M712 1159h-198v423h198v-423zM713 -139h-198v434h198v-434zM1136 634q0 -129 -33 -247.5t-98.5 -209t-164 -144t-230.5 -53.5q-131 0 -228 54t-161.5 144.5t-97 208.5t-32.5 247v186q0 86 14.5 168t43 154.5t71 134t100 105.5t130 69t159.5 25q132 0 230.5 -54 t164.5 -144.5t99 -209.5t33 -248v-186zM895 822q-1 82 -15 163t-47 144.5t-87.5 103t-136.5 39.5q-81 0 -134.5 -39.5t-85 -103.5t-44 -144.5t-13.5 -162.5v-188q1 -82 14 -162.5t44.5 -145t85 -104.5t134.5 -40q82 0 136.5 40t87.5 104t46.5 145t14.5 163v188z" />
<glyph unicode="&#x47b;" d="M707 798h-186v426h186v-426zM705 -152h-186v445h186v-445zM111 551q0 117 34.5 218t99 175t157.5 116t211 42q119 0 212.5 -42t158 -116t98.5 -175t34 -218v-21q0 -118 -34 -219t-98.5 -174.5t-157.5 -115.5t-211 -42q-119 0 -212.5 42t-158 115.5t-99 174.5t-34.5 219 v21zM350 530q0 -74 15.5 -139t48 -114.5t82.5 -78t119 -28.5q67 0 116.5 28.5t82 78t48 114.5t15.5 139v21q0 72 -15.5 137t-48 114t-82 78t-118.5 29q-68 0 -118 -29t-82 -78t-47.5 -114t-15.5 -137v-21z" />
<glyph unicode="&#x47c;" d="M821 1456q85 0 158 -26t126.5 -77t83.5 -127.5t30 -177.5v-702q0 -92 -27 -161t-75 -114.5t-113.5 -68.5t-142.5 -23q-70 0 -126.5 30t-94.5 91q-37 -61 -94 -91t-126 -30q-78 0 -143.5 23t-113 68.5t-74.5 114.5t-27 161v702q0 101 30 177.5t83 127.5t126 77t159 26 v-194q-71 0 -114.5 -52t-43.5 -162v-702q0 -90 32.5 -132t85.5 -42q47 0 75 40t28 127v477h235v-477q0 -87 28 -127t75 -40q51 0 84.5 42t33.5 132v702q0 109 -44.5 161.5t-113.5 52.5v194zM1021 1736v-134h-34q-75 0 -136 18.5t-111.5 41t-92.5 41.5t-79 19 q-47 0 -75.5 -24t-28.5 -78v-18h-135v37q0 112 62.5 164.5t172.5 52.5q51 0 98 -19t97 -41.5t105.5 -41t124.5 -18.5h32zM523 1360q33 42 50.5 77.5t17.5 73.5v95h149v-102q0 -29 -11.5 -59t-30.5 -57t-43.5 -49.5t-49.5 -35.5z" />
<glyph unicode="&#x47d;" d="M806 1102q73 0 138 -24t113.5 -72.5t76.5 -122t28 -171.5v-383q0 -89 -25 -154.5t-68.5 -109t-101 -65t-121.5 -21.5q-72 0 -129 36t-91 106q-34 -70 -90.5 -106t-128.5 -36q-65 0 -122.5 21.5t-101 65t-68.5 109t-25 154.5v383q0 98 28 171.5t77 122t113.5 72.5 t138.5 24v-177q-61 0 -94.5 -48t-33.5 -165v-371q0 -89 23.5 -131.5t67.5 -42.5q51 0 79 34t28 120v256h218v-256q0 -86 30 -120t81 -34q43 0 65 42.5t22 131.5v371q0 117 -33.5 165t-93.5 48v177zM1009 1382v-134h-45q-75 0 -135.5 18.5t-110 41t-90.5 41.5t-78 19 q-47 0 -76 -24t-29 -78v-18h-136v37q0 112 63 164.5t174 52.5q34 0 65.5 -9t63 -22t63.5 -29t67.5 -29t75 -22t85.5 -9h43zM519 1002q33 42 50.5 77.5t17.5 73.5v95h149v-102q0 -29 -11.5 -59t-30.5 -57t-43.5 -49.5t-49.5 -35.5z" />
<glyph unicode="&#x47e;" d="M267 1799h744l1 -112h-291v-127h-181v127h-273v112zM1177 1456v-1117q0 -90 -24 -157.5t-66 -112.5t-100 -67.5t-126 -22.5q-73 0 -131 33t-94 99q-35 -66 -91.5 -99t-125.5 -33q-70 0 -129.5 22.5t-102.5 67.5t-67.5 112.5t-24.5 157.5v1117h229v-1117q0 -87 26.5 -127 t68.5 -40q45 0 72.5 40t27.5 127v1117h234v-1117q0 -87 30 -127t78 -40q38 0 62 40t24 127v1117h230z" />
<glyph unicode="&#x47f;" d="M255 1456h744l1 -112h-291v-127h-181v127h-273v112zM1154 1083v-732q0 -93 -23 -163t-64.5 -116.5t-98.5 -69.5t-124 -23q-74 0 -131.5 34.5t-92.5 103.5q-35 -69 -91.5 -103.5t-127.5 -34.5q-69 0 -127 23t-100.5 69.5t-66 116.5t-23.5 163v732h226v-732 q0 -94 24.5 -137.5t66.5 -43.5q48 0 75.5 43.5t27.5 137.5v732h233v-732q0 -94 28.5 -137.5t78.5 -43.5q38 0 61 43.5t23 137.5v732h226z" />
<glyph unicode="&#x480;" d="M844 -375h-240v361q-107 16 -193.5 67t-147.5 130t-94 182.5t-33 223.5v276q0 133 36 245t101.5 193.5t157.5 127.5t205 46t202.5 -34t151.5 -97.5t95 -155.5t33 -209h-240q0 146 -59.5 224t-182.5 78q-62 0 -110.5 -32t-81.5 -88.5t-50.5 -132.5t-17.5 -163v-278 q0 -88 21.5 -164t62.5 -132.5t100.5 -88.5t135.5 -32h148v-547z" />
<glyph unicode="&#x481;" d="M811 -376h-239v363q-95 17 -168 65.5t-122.5 120t-74.5 161t-25 188.5v36q0 111 32 210t93.5 173t152 117.5t208.5 43.5q95 0 174.5 -30t136.5 -84t89 -129t32 -164h-226q0 44 -15 83t-42 68t-65 46t-84 17q-68 0 -115 -30.5t-76 -80t-42.5 -112.5t-13.5 -128v-36 q0 -66 13 -129t42.5 -112.5t76.5 -80t116 -30.5h142v-546z" />
<glyph unicode="&#x482;" d="M603 449l289 -172l-72 -128l-291 170l-181 -319h-175l225 398l-289 171l71 128l293 -171l202 360l-290 171l73 130l291 -171l185 326h172l-228 -405l293 -171l-76 -127l-288 170z" />
<glyph unicode="&#x483;" horiz-adv-x="0" d="M-79 1312v-126l-178 1l1 238h545l-1 108l177 -1v-220h-544z" />
<glyph unicode="&#x484;" horiz-adv-x="0" d="M-213 1437q51 0 95.5 9t84 22t76.5 29t73 29t72.5 22t76.5 9q116 0 178 -52.5t61 -164.5l-1 -37h-136v18q0 54 -29.5 78t-76.5 24q-43 0 -91 -19t-105 -41.5t-125 -41t-151 -18.5h-47l-1 134h46z" />
<glyph unicode="&#x485;" horiz-adv-x="0" d="M-26 1502l-1 122l189 -2l-1 -131l58 -115l-82 -77z" />
<glyph unicode="&#x486;" horiz-adv-x="0" d="M99 1299l-81 77l58 115l-1 131l190 2v-122z" />
<glyph unicode="&#x488;" horiz-adv-x="0" d="M-96 1267q0 41 14.5 75.5t41.5 59.5t66 39t87 14q49 0 88 -14t66.5 -39t42 -59.5t14.5 -75.5h-112q0 20 -5.5 38t-17 32t-30.5 22.5t-46 8.5t-45.5 -8.5t-30 -22.5t-16.5 -32t-5 -38h-112zM494 990q0 41 14.5 75.5t42 59.5t66.5 39t87 14q49 0 88.5 -14t67 -39t42 -59.5 t14.5 -75.5h-113q0 20 -5 38t-17 32t-31 22.5t-46 8.5q-26 0 -44.5 -8.5t-30 -22.5t-16.5 -32t-5 -38h-114zM681 487q0 41 14.5 75.5t42 59.5t66.5 39t87 14q49 0 88 -14t66.5 -39t42 -59.5t14.5 -75.5h-112q0 20 -5 38t-17 32t-31 22.5t-46 8.5q-26 0 -44.5 -8.5t-30 -22.5 t-17 -32t-5.5 -38h-113zM484 -32q0 41 14.5 75.5t42 59.5t66.5 39t87 14q49 0 88 -14t66.5 -39t42 -59.5t14.5 -75.5h-112q0 20 -5 38t-17 32t-31 22.5t-46 8.5q-26 0 -44.5 -8.5t-30 -22.5t-17 -32t-5.5 -38h-113zM-91 -316q0 41 14.5 75.5t41.5 59.5t66 39t87 14 q49 0 88 -14t66.5 -39t42 -59.5t14.5 -75.5h-112q0 20 -5.5 38t-17 32t-30.5 22.5t-46 8.5q-26 0 -44.5 -8.5t-30 -22.5t-17 -32t-5.5 -38h-112zM-669 990q0 41 14.5 75.5t42 59.5t66.5 39t88 14t88 -14t66.5 -39t42 -59.5t14.5 -75.5h-112q0 20 -5.5 38t-17 32t-30.5 22.5 t-46 8.5t-45.5 -8.5t-30 -22.5t-16.5 -32t-5 -38h-114zM-845 487q0 41 14.5 75.5t42 59.5t66.5 39t87 14q49 0 88 -14t66.5 -39t42 -59.5t14.5 -75.5h-112q0 20 -5 38t-17 32t-31 22.5t-46 8.5q-26 0 -44.5 -8.5t-30 -22.5t-17 -32t-5.5 -38h-113zM-679 -32q0 41 14.5 75.5 t42 59.5t66.5 39t87 14q49 0 88.5 -14t67 -39t42 -59.5t14.5 -75.5h-113q0 20 -5 38t-17 32t-31 22.5t-46 8.5q-26 0 -44.5 -8.5t-30 -22.5t-16.5 -32t-5 -38h-114z" />
<glyph unicode="&#x489;" horiz-adv-x="0" d="M270 -60l11 -14l-122 -339h-96l70 353h137zM75 1126l-12 14l122 338h96l-70 -352h-136zM753 631l13 12l333 -124v-98l-346 71v139zM-410 433l-13 -12l-333 124v98l346 -71v-139zM513 1002l2 16l321 153l68 -68l-294 -200zM-170 21l-2 -17l-320 -153l-69 69l294 200z M-310 860l-17 2l-148 326l65 69l198 -299zM651 161l17 -2l149 -325l-66 -71l-197 299z" />
<glyph unicode="&#x48a;" d="M837 1456h241v-1456h-241v988l-461 -988h-241v1456h241v-988zM921 1846q0 -62 -22.5 -114t-64 -89t-101 -57.5t-133.5 -20.5t-133.5 20.5t-101 57.5t-64 89t-22.5 114h180q0 -28 7.5 -53t24.5 -44.5t43.5 -31t65.5 -11.5q38 0 65 11.5t43.5 31t24 44.5t7.5 53h181z M1289 6q0 -53 -13.5 -109t-39 -110t-61 -102.5t-78.5 -86.5l-135 71q43 72 66 151.5t23 177.5v209h239z" />
<glyph unicode="&#x48b;" d="M837 1082h239v-1082h-239v736l-458 -736h-239v1082h239v-736zM918 1527q0 -62 -22.5 -114t-64 -89t-101 -57.5t-133.5 -20.5t-133.5 20.5t-101 57.5t-64 89t-22.5 114h180q0 -28 7.5 -53t24.5 -44.5t43.5 -31t65.5 -11.5q38 0 65 11.5t43.5 31t24 44.5t7.5 53h181z M1288 6q0 -53 -13.5 -109t-39 -110t-61 -102.5t-78.5 -86.5l-135 71q43 72 66 151.5t23 177.5v209h239z" />
<glyph unicode="&#x48c;" d="M618 1094h-232v-203h212q123 0 219 -31.5t162 -89t100.5 -139t34.5 -180.5q0 -100 -34.5 -183t-100.5 -142.5t-162 -92.5t-219 -33h-453v1094h-194v170h194v192h241v-192h232v-170zM386 698v-505h212q72 0 124 21t85.5 57t49.5 83t16 99q0 50 -16 94.5t-49.5 78t-85.5 53 t-124 19.5h-212z" />
<glyph unicode="&#x48d;" d="M688 799h-300v-104h300q104 0 185 -25.5t136 -71.5t83.5 -109.5t28.5 -139.5q0 -74 -28.5 -138t-83.5 -111t-136 -73.5t-185 -26.5h-539v799h-128v170h128v113h239v-113h300v-170zM388 504v-313h300q53 0 89.5 13t59.5 34t33.5 48.5t10.5 57.5t-10.5 58.5t-33.5 51 t-59.5 36.5t-89.5 14h-300z" />
<glyph unicode="&#x48e;" d="M1100 432l-135 -65l-401 539l135 66zM407 558v-558h-240v1456h487q109 -1 201.5 -32.5t159.5 -90t104.5 -142t37.5 -188.5q0 -102 -37.5 -184t-104.5 -140t-159.5 -89t-201.5 -32h-247zM407 752h247q61 0 109 18.5t82 51.5t52 79t18 100q0 57 -18 105t-52 82.5t-82 53.5 t-109 20h-247v-510z" />
<glyph unicode="&#x48f;" d="M1091 0l-115 -90l-394 413l114 91zM1102 530q0 -118 -28 -219t-82 -174.5t-132.5 -115t-180.5 -41.5q-92 0 -162.5 30t-121.5 86v-512h-239v1498h220l10 -109q52 62 123.5 95.5t166.5 33.5q103 0 182.5 -40t133.5 -112.5t82 -174t28 -224.5v-21zM863 551q0 73 -15 137.5 t-46 113t-79 76.5t-114 28q-80 0 -132 -34t-82 -91v-484q30 -56 81.5 -91t134.5 -35q66 0 114 29t78.5 78t45 114t14.5 138v21z" />
<glyph unicode="&#x490;" d="M1112 1262h-705v-1262h-241v1456h707v350h239v-544z" />
<glyph unicode="&#x491;" d="M1098 889h-24v-1h-671v-888h-239v1082h695v314h239v-507z" />
<glyph unicode="&#x492;" d="M651 670h-250v-670h-241v670h-176v170h176v616h918v-194h-677v-422h250v-170z" />
<glyph unicode="&#x493;" d="M646 464h-246v-464h-239v464h-182v170h182v448h910v-194h-671v-254h246v-170z" />
<glyph unicode="&#x494;" d="M1078 1262h-677v-427h176q140 0 251.5 -38.5t189.5 -113t119.5 -183t41.5 -248.5q0 -122 -29.5 -225.5t-91.5 -178.5t-157.5 -117.5t-227.5 -42.5l-1 184q81 0 133 30.5t82 82.5t41.5 119.5t11.5 141.5q-1 192 -90.5 290.5t-272.5 98.5h-176v-635h-241v1456h918v-194z " />
<glyph unicode="&#x495;" d="M1074 888h-671v-232h195q117 0 215 -31.5t169 -93t110.5 -151t39.5 -206.5q0 -57 -21 -127t-66.5 -135.5t-117.5 -119t-175 -78.5l-82 172q119 39 171 112t52 176q0 69 -21.5 122t-60 88.5t-93 54t-120.5 18.5h-195v-457h-239v1082h910v-194z" />
<glyph unicode="&#x496;" d="M776 616h-51v-616h-222v616h-57l-165 -616h-273l254 750l-222 706h264l144 -633h55v633h222v-633h49l141 633h264l-219 -706l250 -750h-273zM1311 -358h-239v539h239v-539z" />
<glyph unicode="&#x497;" d="M771 437h-54v-437h-220v437h-54l-159 -437h-259l257 568l-236 514h256l148 -426h47v426h220v-426h48l149 426h256l-235 -511l257 -571h-261zM1303 -358h-239v539h239v-539z" />
<glyph unicode="&#x498;" d="M624 837q72 0 122.5 16.5t83 45.5t47.5 70t15 91q0 45 -16.5 85.5t-51.5 71t-88.5 48.5t-127.5 18q-56 0 -104 -16t-83.5 -44t-56 -67.5t-20.5 -85.5h-240q0 94 40.5 169.5t109.5 128t160.5 80.5t193.5 28q120 0 217 -26.5t165.5 -79t105.5 -130t37 -179.5 q0 -50 -15.5 -96t-45 -86.5t-72 -73.5t-96.5 -57q121 -42 186 -127.5t65 -212.5q0 -102 -40.5 -182t-113.5 -134.5t-173 -83t-220 -28.5q-96 0 -190 24.5t-168.5 76t-120.5 131.5t-46 192h241q0 -48 20.5 -90.5t58 -74t89.5 -49.5t116 -18q73 0 130 18t96 49.5t59.5 74.5 t20.5 93q0 125 -73.5 182.5t-216.5 57.5h-189v190h189zM721 -489h-239v539h239v-539z" />
<glyph unicode="&#x499;" d="M628 640q117 0 169 37t52 98q0 26 -13 51.5t-40.5 45.5t-71 32t-103.5 12q-51 0 -95.5 -10.5t-77.5 -29.5t-52 -44.5t-19 -56.5h-238q0 76 37.5 136.5t102.5 102.5t151.5 64.5t184.5 22.5q107 0 194 -20.5t149 -60t96 -98.5t34 -136q0 -72 -50 -132.5t-141 -96.5 q103 -32 157 -95.5t54 -155.5q0 -77 -37 -137.5t-102.5 -102.5t-156 -64t-197.5 -22q-91 0 -179.5 20t-158 61.5t-112.5 106t-43 153.5h238q0 -31 18.5 -59.5t52.5 -50.5t82.5 -35t108.5 -13t106 12.5t77 33.5t47 48.5t16 57.5q0 80 -61.5 115t-178.5 35h-226v175h226z M733 -479h-239v539h239v-539z" />
<glyph unicode="&#x49a;" d="M538 626h-142v-626h-241v1456h241v-641h109l405 641h277l-460 -703l489 -753h-286zM1275 -354h-239v539h239v-539z" />
<glyph unicode="&#x49b;" d="M550 430h-167v-430h-239v1082h239v-434h148l343 434h296l-429 -522l461 -560h-310zM1283 -358h-239v539h239v-539z" />
<glyph unicode="&#x49c;" d="M1221 1456l-319 -669l360 -787h-303l-280 629h-40v-234h-163v234h-87v-629h-241v1456h241v-620h87v254h163v-254h33l261 620h288z" />
<glyph unicode="&#x49d;" d="M1158 1082l-317 -515l344 -567h-304l-220 430h-49v-179h-156v179h-75v-430h-239v1082h239v-434h75v200h156v-200h41l211 434h294z" />
<glyph unicode="&#x49e;" horiz-adv-x="1249" d="M558 626h-142v-626h-241v1133h-182v170h182v153h241v-153h244v-170h-244v-318h109l405 641h277l-460 -703l489 -753h-286z" />
<glyph unicode="&#x49f;" horiz-adv-x="1249" d="M545 473l-130 -124v-349h-239v1209h-206v170h206v157h239v-157h222v-170h-222v-578l101 113l318 338h288l-418 -450l482 -632h-298z" />
<glyph unicode="&#x4a0;" d="M664 623h-79v-623h-240v1255h-316v201h556v-610h72l240 610h276l-306 -700l345 -756h-284z" />
<glyph unicode="&#x4a1;" d="M696 424h-100v-424h-243v880h-315v202h558v-428h96l194 428h298l-299 -513l330 -569h-312z" />
<glyph unicode="&#x4a2;" d="M1092 0h-234v650h-495v-650h-233v1456h233v-609h495v609h234v-1456zM1237 -358h-239v539h239v-539z" />
<glyph unicode="&#x4a3;" d="M1076 0h-240v438h-456v-438h-240v1082h240v-452h456v452h240v-1082zM1243 -358h-239v539h239v-539z" />
<glyph unicode="&#x4a4;" d="M326 831h306v625h554v-201h-320v-1255h-234v627h-306v-627h-235v1456h235v-625z" />
<glyph unicode="&#x4a5;" d="M342 633h312v449h532v-201h-289v-881h-243v434h-312v-434h-243v1082h243v-449z" />
<glyph unicode="&#x4a6;" d="M745 833q113 -1 196 -47t138 -125t81.5 -185t26.5 -226q0 -124 -24 -228t-74.5 -180t-129 -118.5t-186.5 -43.5l-2 192q55 1 89 32t52 82.5t24 118t6 137.5q0 69 -10 137t-32.5 123t-60 89t-94.5 36v-627h-234v1251h-197v-1251h-234v1456h665v-623z" />
<glyph unicode="&#x4a7;" d="M742 662q97 -2 176.5 -37.5t136 -99t87.5 -151.5t31 -195q0 -62 -20 -134.5t-60.5 -138.5t-102.5 -117.5t-148 -69.5l-84 175q49 17 81.5 46t52 66.5t27.5 81.5t8 91q0 57 -11.5 106.5t-34.5 86t-57.5 58.5t-81.5 24v-454h-234v881h-176v-881h-234v1082h644v-420z" />
<glyph unicode="&#x4a8;" d="M1152 -24q-84 0 -159 16t-141 46q-51 -29 -108 -44t-120 -15q-119 0 -216 48.5t-167 133t-108 200t-38 249.5v302q0 120 26 223t74 179t115 119.5t148 43.5v-202q-27 0 -48.5 -27.5t-36 -75.5t-22.5 -114t-8 -144v-304q0 -93 19 -172t55 -136t88.5 -89.5t118.5 -32.5 q8 0 16.5 0.5t16.5 1.5q-80 90 -123 209.5t-43 262.5v332q0 104 23 193.5t64.5 155t100 103t130.5 37.5q74 0 135 -38t104.5 -105.5t67.5 -161t24 -205.5v-334q0 -131 -33 -243.5t-94 -199.5q32 -9 66.5 -14t72.5 -5v-193zM724 652q0 -104 26.5 -190t77.5 -150 q35 61 53.5 142t18.5 177v350q0 146 -24 219.5t-67 73.5q-41 0 -63 -74.5t-22 -211.5v-336z" />
<glyph unicode="&#x4a9;" d="M1201 -18q-96 0 -178.5 14t-153.5 41q-58 -28 -124 -43t-141 -15q-118 0 -215 44t-166.5 121t-107.5 182t-38 227v74q0 102 28 188.5t79 150.5t122 100t158 36v-199q-33 -2 -59 -23t-44.5 -57t-28 -85.5t-9.5 -108.5v-76q0 -80 19.5 -148.5t55.5 -118.5t88 -78.5 t118 -28.5h20t20 2q-72 75 -109 170t-37 204v126q0 91 23 168t66 133.5t104 88t136 31.5q77 0 139.5 -35t106.5 -95.5t67.5 -143.5t23.5 -179v-124q0 -106 -33.5 -197.5t-94.5 -163.5q77 -17 165 -17v-165zM704 548q0 -85 31 -156.5t91 -125.5q48 48 73.5 116t25.5 150v127 q0 51 -7.5 95.5t-21.5 78t-34.5 52.5t-47.5 19t-47.5 -17t-34.5 -47t-21 -71.5t-7 -90.5v-130z" />
<glyph unicode="&#x4aa;" d="M1132 447q-10 -105 -50 -191.5t-106 -148t-155.5 -95t-199.5 -33.5q-133 0 -232 51.5t-165 139.5t-99 206t-34 252v199q1 133 35 251.5t100.5 207t165.5 140t230 51.5q115 0 205 -34t154 -96t102 -151t49 -198h-240q-6 64 -24.5 116.5t-50.5 90t-80.5 57.5t-114.5 20 q-81 0 -136 -37t-89 -99.5t-48.5 -144.5t-14.5 -172v-201q0 -94 14.5 -176.5t47.5 -144.5t88 -98t137 -36q126 0 192 71.5t78 202.5h241zM731 -477h-239v539h239v-539z" />
<glyph unicode="&#x4ab;" d="M628 170q44 0 85.5 14t73.5 39t50.5 59t17.5 74h226q1 -78 -35.5 -146.5t-99 -119.5t-144.5 -81t-172 -30q-125 0 -219 43t-157 117.5t-94.5 173t-31.5 209.5v36q0 111 31.5 210t94.5 173t157 117.5t218 43.5q98 0 181.5 -30t144 -84t94 -129t32.5 -164h-226 q1 44 -15.5 83t-47.5 68t-73 46t-92 17q-75 0 -125 -30.5t-80 -80t-42.5 -112.5t-12.5 -128v-36q0 -66 12.5 -129t42.5 -112.5t80 -80t126 -30.5zM742 -477h-239v539h239v-539z" />
<glyph unicode="&#x4ac;" d="M1180 1258h-447v-1258h-239v1258h-444v198h1130v-198zM889 -358h-239v539h239v-539z" />
<glyph unicode="&#x4ad;" d="M1175 891h-421v-891h-240v891h-417v191h1078v-191zM921 -358h-239v539h239v-539z" />
<glyph unicode="&#x4ae;" d="M616 760l303 696h268l-454 -933l-2 -523h-233l-2 529l-451 927h268z" />
<glyph unicode="&#x4af;" d="M945 1082h247l-450 -1045v-454h-239v458l-450 1041h248l308 -776l17 -74l19 77z" />
<glyph unicode="&#x4b0;" d="M948 524h-215v-1l-2 -523h-233l-2 524h-215v170h134l-370 762h268l303 -696l303 696h268l-371 -762h132v-170z" />
<glyph unicode="&#x4b1;" d="M963 -4h-221v-413h-239v413h-207v170h153l-396 916h248l308 -776l17 -74l19 77l300 773h247l-395 -916h166v-170z" />
<glyph unicode="&#x4b2;" d="M624 914l280 542h283l-415 -722l425 -734h-281l-288 551l-288 -551h-284l425 734l-414 722h281zM1269 -358h-239v539h239v-539z" />
<glyph unicode="&#x4b3;" d="M628 716l258 366h266l-382 -533l394 -549h-265l-268 379l-267 -379h-267l394 549l-382 533h265zM1167 -358h-239v539h239v-539z" />
<glyph unicode="&#x4b4;" d="M277 1255h-249v201h713v-201h-225v-1051h328v1252h240v-1251h151l-18 -556h-220v351h-720v1255z" />
<glyph unicode="&#x4b5;" d="M248 882h-207v200h647v-200h-197v-682h316v882h243v-883h141l-20 -520h-223v321h-700v882z" />
<glyph unicode="&#x4b6;" d="M1094 1456v-1456h-241v574q-57 -18 -120 -29t-131 -11q-102 0 -184 26t-139 81.5t-87.5 143.5t-30.5 212v459h240v-459q0 -79 12.5 -130.5t37 -82t62.5 -43t89 -12.5q60 0 125.5 10t125.5 29v688h241zM1260 -358h-239v539h239v-539z" />
<glyph unicode="&#x4b7;" d="M1095 0h-240v367q-59 -13 -122.5 -20t-129.5 -7q-108 0 -195.5 25t-149 75.5t-95 128t-33.5 182.5v331h239v-331q0 -59 15 -100.5t44 -67.5t73 -38t102 -12q68 0 130 7t122 20v522h240v-1082zM1262 -358h-239v539h239v-539z" />
<glyph unicode="&#x4b8;" d="M678 294h-163v729h163v-729zM1082 1456v-1456h-241v574q-57 -18 -120 -29t-131 -11q-102 0 -184 26t-139 81.5t-87.5 143.5t-30.5 212v459h240v-459q0 -79 12.5 -130.5t37 -82t62.5 -43t89 -12.5q60 0 125.5 10t125.5 29v688h241z" />
<glyph unicode="&#x4b9;" d="M692 186h-163v604h163v-604zM1091 0h-240v367q-59 -13 -122.5 -20t-129.5 -7q-108 0 -195.5 25t-149 75.5t-95 128t-33.5 182.5v331h239v-331q0 -59 15 -100.5t44 -67.5t73 -38t102 -12q68 0 130 7t122 20v522h240v-1082z" />
<glyph unicode="&#x4ba;" d="M169 0v1456h245v-570q57 17 116.5 27t136.5 10q104 0 187.5 -28t142.5 -85.5t91 -145.5t32 -208l-3 -456h-246l-3 456q0 71 -11 120.5t-35.5 81t-62.5 46t-92 14.5q-69 1 -130.5 -10t-122.5 -28v-680h-245z" />
<glyph unicode="&#x4bb;" d="M394 932q56 80 136.5 125t179.5 45q84 0 154.5 -25t120.5 -77.5t78 -135t28 -197.5v-667h-239v669q0 62 -15.5 106.5t-44 73.5t-69.5 43t-93 14q-78 0 -138 -32.5t-98 -87.5v-786h-239v1536h239v-604z" />
<glyph unicode="&#x4bc;" d="M782 -23q-126 0 -223.5 46.5t-164.5 127.5t-101.5 191.5t-35.5 240.5v97q-128 29 -196.5 131t-59.5 271h182q-1 -76 15.5 -129t58.5 -80q3 131 39.5 241.5t98.5 191t146.5 125t183.5 44.5q120 0 203 -47t135.5 -130t76 -196.5t23.5 -248.5l-1 -193h-654v-77 q0 -78 16 -149t51.5 -125t92.5 -86t139 -32q41 0 77.5 6.5t68.5 16t59 21.5t49 24l49 -196q-21 -13 -53 -28t-73 -28t-92 -21.5t-110 -8.5zM508 854h408v79q0 62 -7.5 120.5t-28.5 104.5t-58 73.5t-97 27.5q-53 0 -93.5 -30t-68 -83t-41.5 -127t-14 -162v-3z" />
<glyph unicode="&#x4bd;" d="M761 -20q-104 0 -189.5 38t-147.5 105.5t-97.5 161.5t-39.5 207q-63 15 -111 47t-80.5 80t-49 110.5t-15.5 136.5h172q2 -72 24 -122.5t69 -75.5q15 95 54.5 174.5t97 137.5t131.5 90t159 32q108 0 188 -38.5t133 -106.5t80 -160t27 -199l-1 -130h-628q5 -61 22.5 -113.5 t47.5 -91.5t72.5 -61.5t98.5 -22.5q47 0 85 7.5t69.5 21t57 32t48.5 39.5l99 -144q-29 -33 -66.5 -61.5t-84.5 -49t-103 -32.5t-122 -12zM737 901q-41 0 -73.5 -20.5t-57 -55t-41 -80.5t-23.5 -97h378v26q-1 46 -11.5 87.5t-33 72.5t-56.5 49t-82 18z" />
<glyph unicode="&#x4be;" d="M782 -23q-126 0 -223.5 46.5t-164.5 127.5t-101.5 191.5t-35.5 240.5v97q-128 29 -196.5 131t-59.5 271h182q-1 -76 15.5 -129t58.5 -80q3 131 39.5 241.5t98.5 191t146.5 125t183.5 44.5q120 0 203 -47t135.5 -130t76 -196.5t23.5 -248.5l-1 -193h-654v-77 q0 -78 16 -149t51.5 -125t92.5 -86t139 -32q41 0 77.5 6.5t68.5 16t59 21.5t49 24l49 -196q-21 -13 -53 -28t-73 -28t-92 -21.5t-110 -8.5zM508 854h408v79q0 62 -7.5 120.5t-28.5 104.5t-58 73.5t-97 27.5q-53 0 -93.5 -30t-68 -83t-41.5 -127t-14 -162v-3zM894 -476h-239 v539h239v-539z" />
<glyph unicode="&#x4bf;" d="M761 -20q-104 0 -189.5 38t-147.5 105.5t-97.5 161.5t-39.5 207q-63 15 -111 47t-80.5 80t-49 110.5t-15.5 136.5h172q2 -72 24 -122.5t69 -75.5q15 95 54.5 174.5t97 137.5t131.5 90t159 32q108 0 188 -38.5t133 -106.5t80 -160t27 -199l-1 -130h-628q5 -61 22.5 -113.5 t47.5 -91.5t72.5 -61.5t98.5 -22.5q47 0 85 7.5t69.5 21t57 32t48.5 39.5l99 -144q-29 -33 -66.5 -61.5t-84.5 -49t-103 -32.5t-122 -12zM737 901q-41 0 -73.5 -20.5t-57 -55t-41 -80.5t-23.5 -97h378v26q-1 46 -11.5 87.5t-33 72.5t-56.5 49t-82 18zM878 -475h-239v539h239 v-539z" />
<glyph unicode="&#x4c0;" d="M181 1456h866v-199h-315v-1059h315v-198h-866v198h308v1059h-308v199z" />
<glyph unicode="&#x4c1;" d="M776 616h-51v-616h-222v616h-57l-165 -616h-273l254 750l-222 706h264l144 -633h55v633h222v-633h49l141 633h264l-219 -706l250 -750h-273zM947 1859q0 -62 -22.5 -114t-64 -89t-101 -57.5t-133.5 -20.5t-133.5 20.5t-101 57.5t-64 89t-22.5 114h180q0 -28 7.5 -53 t24.5 -44.5t43.5 -31t65.5 -11.5q38 0 65 11.5t43.5 31t24 44.5t7.5 53h181z" />
<glyph unicode="&#x4c2;" d="M771 437h-54v-437h-220v437h-54l-159 -437h-259l257 568l-236 514h256l148 -426h47v426h220v-426h48l149 426h256l-235 -511l257 -571h-261zM934 1527q0 -62 -22.5 -114t-64 -89t-101 -57.5t-133.5 -20.5t-133.5 20.5t-101 57.5t-64 89t-22.5 114h180q0 -28 7.5 -53 t24.5 -44.5t43.5 -31t65.5 -11.5q38 0 65 11.5t43.5 31t24 44.5t7.5 53h181z" />
<glyph unicode="&#x4c3;" d="M419 0h-241v1456h241v-608h126l334 608h289l-400 -635q100 -18 178.5 -64.5t133.5 -118.5t84 -169.5t29 -218.5q0 -122 -29.5 -225t-92 -179t-158 -118.5t-227.5 -42.5l-1 185q81 0 133 31t82 82.5t41.5 119t11.5 141.5q-1 192 -81 290.5t-241 98.5h-212v-633z" />
<glyph unicode="&#x4c4;" d="M756 610q79 -19 144 -56t111.5 -92t71.5 -128.5t25 -165.5q0 -56 -20 -123t-63.5 -130t-111.5 -114.5t-165 -76.5l-82 172q107 37 155 105.5t48 166.5q0 64 -19 112t-53.5 80t-82.5 49t-108 21h-205v-430h-239v1082h239v-434h115l307 434h295z" />
<glyph unicode="&#x4c5;" d="M1086 1456v-1456h-241v1262h-352l-2 -581q-2 -180 -25 -309t-70 -211.5t-119.5 -121.5t-172.5 -39h-61v193h40q48 3 80 29.5t51.5 84t27.5 149t9 225.5l3 775h832zM1297 6q0 -53 -13.5 -109t-39 -110t-61 -102.5t-78.5 -86.5l-135 71q43 72 66 151.5t23 177.5v209h239z " />
<glyph unicode="&#x4c6;" d="M1076 1082v-1082h-240v888h-338v-267q0 -154 -20 -270.5t-67 -194.5t-124 -117t-190 -39h-53l1 202h37q54 0 88 23.5t54 74t27 130t7 191.5v461h818zM1288 6q0 -53 -13.5 -109t-39 -110t-61 -102.5t-78.5 -86.5l-135 71q43 72 66 151.5t23 177.5v209h239z" />
<glyph unicode="&#x4c7;" d="M401 1456v-641h424v641h241v-1520q0 -90 -24 -160t-69.5 -117t-111 -71.5t-147.5 -24.5q-34 0 -63.5 3.5t-62.5 13.5l14 189q9 -3 22.5 -5.5t27 -4t26.5 -2t22 -0.5q60 0 92.5 47t32.5 132v686h-424v-622h-241v1456h241z" />
<glyph unicode="&#x4c8;" d="M397 1082v-452h426v452h239v-1146q0 -90 -24 -160t-69 -117t-110 -71.5t-147 -24.5q-34 0 -63 3.5t-63 13.5l15 189q9 -3 22 -5.5t26.5 -4t27 -2.5t22.5 -1q60 0 92 47t32 133v502h-426v-438h-239v1082h239z" />
<glyph unicode="&#x4c9;" d="M1092 0h-234v650h-495v-650h-233v1456h233v-609h495v609h234v-1456zM1282 6q0 -53 -13.5 -109t-39 -110t-61 -102.5t-78.5 -86.5l-135 71q43 72 66 151.5t23 177.5v209h239z" />
<glyph unicode="&#x4ca;" d="M1076 0h-240v438h-456v-438h-240v1082h240v-452h456v452h240v-1082zM1288 6q0 -53 -13.5 -109t-39 -110t-61 -102.5t-78.5 -86.5l-135 71q43 72 66 151.5t23 177.5v209h239z" />
<glyph unicode="&#x4cb;" d="M1094 1456v-1456h-241v574q-57 -18 -120 -29t-131 -11q-102 0 -184 26t-139 81.5t-87.5 143.5t-30.5 212v459h240v-459q0 -79 12.5 -130.5t37 -82t62.5 -43t89 -12.5q60 0 125.5 10t125.5 29v688h241zM922 -358h-239v539h239v-539z" />
<glyph unicode="&#x4cc;" d="M1095 0h-240v367q-59 -13 -122.5 -20t-129.5 -7q-108 0 -195.5 25t-149 75.5t-95 128t-33.5 182.5v331h239v-331q0 -59 15 -100.5t44 -67.5t73 -38t102 -12q68 0 130 7t122 20v522h240v-1082zM923 -358h-239v539h239v-539z" />
<glyph unicode="&#x4cd;" d="M433 1456l181 -629l200 629h298v-1456h-226v500l14 638l-224 -698h-126l-203 674l14 -614v-500h-226v1456h298zM1326 6q0 -53 -13.5 -109t-39 -110t-61 -102.5t-78.5 -86.5l-135 71q43 72 66 151.5t23 177.5v209h239z" />
<glyph unicode="&#x4ce;" d="M607 295l183 787h299v-1082h-223v617l-178 -617h-163l-178 621v-621h-223v1082h302zM1303 6q0 -53 -13.5 -109t-39 -110t-61 -102.5t-78.5 -86.5l-135 71q43 72 66 151.5t23 177.5v209h239z" />
<glyph unicode="&#x4cf;" d="M181 1456h866v-199h-315v-1059h315v-198h-866v198h308v1059h-308v199z" />
<glyph unicode="&#x4d0;" d="M855 338h-455l-100 -338h-248l473 1456h211l464 -1456h-247zM461 543h334l-165 571zM953 1864q0 -62 -22.5 -114t-64 -89t-101 -57.5t-133.5 -20.5t-133.5 20.5t-101 57.5t-64 89t-22.5 114h180q0 -28 7.5 -53t24.5 -44.5t43.5 -31t65.5 -11.5q38 0 65 11.5t43.5 31 t24 44.5t7.5 53h181z" />
<glyph unicode="&#x4d1;" d="M845 0q-10 20 -16.5 47t-11.5 58q-25 -26 -56.5 -48.5t-70 -39.5t-83 -27t-95.5 -10q-86 0 -155.5 24.5t-119 68t-76.5 102.5t-27 128q0 174 129.5 266t371.5 92h175v71q0 86 -58 136.5t-164 50.5q-48 0 -84 -11.5t-60 -31.5t-36 -47t-12 -58h-239q0 63 29.5 122.5 t86.5 106t139.5 74.5t188.5 28q96 0 178 -23.5t142 -70t94 -116t34 -162.5v-482q0 -71 10.5 -129.5t30.5 -101.5v-17h-245zM557 173q46 0 86.5 11.5t73 30t56 42.5t37.5 49v203h-152q-146 0 -215.5 -47t-69.5 -134q0 -33 11 -61.5t33.5 -49t57 -32.5t82.5 -12zM933 1542 q0 -62 -22.5 -114t-64 -89t-101 -57.5t-133.5 -20.5t-133.5 20.5t-101 57.5t-64 89t-22.5 114h180q0 -28 7.5 -53t24.5 -44.5t43.5 -31t65.5 -11.5q38 0 65 11.5t43.5 31t24 44.5t7.5 53h181z" />
<glyph unicode="&#x4d2;" d="M855 338h-455l-100 -338h-248l473 1456h211l464 -1456h-247zM461 543h334l-165 571zM274 1715q0 50 33.5 84t92.5 34t92.5 -34t33.5 -84t-33.5 -83.5t-92.5 -33.5t-92.5 33.5t-33.5 83.5zM729 1714q0 50 33 83.5t92 33.5t92.5 -33.5t33.5 -83.5t-33.5 -84t-92.5 -34 t-92 34t-33 84z" />
<glyph unicode="&#x4d3;" d="M845 0q-10 20 -16.5 47t-11.5 58q-25 -26 -56.5 -48.5t-70 -39.5t-83 -27t-95.5 -10q-86 0 -155.5 24.5t-119 68t-76.5 102.5t-27 128q0 174 129.5 266t371.5 92h175v71q0 86 -58 136.5t-164 50.5q-48 0 -84 -11.5t-60 -31.5t-36 -47t-12 -58h-239q0 63 29.5 122.5 t86.5 106t139.5 74.5t188.5 28q96 0 178 -23.5t142 -70t94 -116t34 -162.5v-482q0 -71 10.5 -129.5t30.5 -101.5v-17h-245zM557 173q46 0 86.5 11.5t73 30t56 42.5t37.5 49v203h-152q-146 0 -215.5 -47t-69.5 -134q0 -33 11 -61.5t33.5 -49t57 -32.5t82.5 -12zM254 1393 q0 50 33.5 84t92.5 34t92.5 -34t33.5 -84t-33.5 -83.5t-92.5 -33.5t-92.5 33.5t-33.5 83.5zM709 1392q0 50 33 83.5t92 33.5t92.5 -33.5t33.5 -83.5t-33.5 -84t-92.5 -34t-92 34t-33 84z" />
<glyph unicode="&#x4d4;" d="M1189 0h-537v340h-260l-106 -340h-249l521 1456h609v-194h-287v-412h256v-194h-256v-463h309v-193zM652 553v614l-193 -614h193z" />
<glyph unicode="&#x4d5;" d="M882 -20q-96 0 -167 33t-117 96q-18 -26 -42.5 -49.5t-55 -41t-68 -28t-81.5 -10.5q-74 0 -131.5 22t-96.5 62.5t-59 98t-20 128.5q0 169 110 260t323 91h26v131q0 65 -24.5 100.5t-75.5 35.5q-52 0 -81.5 -31.5t-29.5 -95.5l-228 9q0 71 23 128.5t66 98t104.5 62.5 t137.5 22q75 0 135.5 -22t102.5 -65q43 42 100.5 65t129.5 22q77 0 138.5 -27t104.5 -77t66 -121.5t23 -161.5v-243h-476v-85q0 -103 48 -159.5t160 -56.5q36 0 63.5 5.5t50.5 13.5t42.5 18.5t37.5 19.5l51 -168q-16 -12 -42.5 -26t-63 -26t-83 -20t-101.5 -8zM719 642h253 v121q0 31 -8 58t-23 46.5t-37 30.5t-51 11q-38 0 -63.5 -15.5t-41.5 -43.5t-22.5 -65.5t-6.5 -80.5v-62zM406 162q24 0 50 12t47 32v270h-24q-47 0 -84 -15.5t-62.5 -41.5t-39 -60.5t-13.5 -71.5q0 -54 31.5 -89.5t94.5 -35.5z" />
<glyph unicode="&#x4d6;" d="M1002 653h-599v-457h701v-196h-942v1456h935v-198h-694v-411h599v-194zM958 1859q0 -62 -22.5 -114t-64 -89t-101 -57.5t-133.5 -20.5t-133.5 20.5t-101 57.5t-64 89t-22.5 114h180q0 -28 7.5 -53t24.5 -44.5t43.5 -31t65.5 -11.5q38 0 65 11.5t43.5 31t24 44.5t7.5 53 h181z" />
</font>
</defs>
</svg>
